Advertisement
trds

Untitled

Jul 4th, 2022
661
Never
Not a member of Pastebin yet? Sign Up, it unlocks many cool features!
Python 9.38 KB | None
  1. General
  2. Unique ID                   : 323368471441384075358812224558013603400 (0xF34680919E7450C2A979990BD8F7DE48)
  3. Format                      : Matroska
  4. Format version              : Version 4
  5. File size                   : 16.1 GiB
  6. Duration                    : 2 h 19 min
  7. Overall bit rate            : 16.6 Mb/s
  8. Encoded date                : UTC 2022-07-03 18:07:22
  9. Writing application         : mkvmerge v68.0.0 ('The Curtain') 64-bit
  10. Writing library             : libebml v1.4.2 + libmatroska v1.6.4
  11.  
  12. Video
  13. ID                          : 1
  14. Format                      : HEVC
  15. Format/Info                 : High Efficiency Video Coding
  16. Format profile              : Main 10@L5.1@High
  17. HDR format                  : Dolby Vision, Version 1.0, dvhe.08.03, BL+RPU, HDR10 compatible / SMPTE ST 2086, HDR10 compatible
  18. Codec ID                    : V_MPEGH/ISO/HEVC
  19. Duration                    : 2 h 19 min
  20. Bit rate                    : 14.8 Mb/s
  21. Width                       : 1 920 pixels
  22. Height                      : 1 038 pixels
  23. Display aspect ratio        : 1.85:1
  24. Frame rate mode             : Constant
  25. Frame rate                  : 23.976 (24000/1001) FPS
  26. Color space                 : YUV
  27. Chroma subsampling          : 4:2:0 (Type 2)
  28. Bit depth                   : 10 bits
  29. Bits/(Pixel*Frame)          : 0.310
  30. Stream size                 : 14.4 GiB (89%)
  31. Writing library             : x265 3.5+20-17839cc0d:[Windows][MSVC 1930][64 bit] 10bit
  32. Encoding settings           : cpuid=1111039 / frame-threads=4 / numa-pools=16 / wpp / no-pmode / no-pme / no-psnr / no-ssim / log-level=2 / input-csp=1 / input-res=1920x1038 / interlace=0 / total-frames=0 / level-idc=51 / high-tier=1 / uhd-bd=0 / ref=5 / no-allow-non-conformance / repeat-headers / annexb / aud / no-eob / no-eos / hrd / info / hash=0 / no-temporal-layers / open-gop / min-keyint=23 / keyint=250 / gop-lookahead=0 / bframes=12 / b-adapt=2 / b-pyramid / bframe-bias=0 / rc-lookahead=40 / lookahead-slices=4 / scenecut=40 / no-hist-scenecut / radl=0 / no-splice / no-intra-refresh / ctu=64 / min-cu-size=8 / no-rect / no-amp / max-tu-size=32 / tu-inter-depth=4 / tu-intra-depth=4 / limit-tu=4 / rdoq-level=2 / dynamic-rd=0.00 / no-ssim-rd / signhide / no-tskip / nr-intra=0 / nr-inter=0 / no-constrained-intra / strong-intra-smoothing / max-merge=4 / limit-refs=1 / limit-modes / me=3 / subme=5 / merange=57 / temporal-mvp / no-frame-dup / no-hme / weightp / weightb / no-analyze-src-pics / deblock=-3:-3 / no-sao / no-sao-non-deblock / rd=4 / selective-sao=0 / no-early-skip / no-rskip / no-fast-intra / no-tskip-fast / no-cu-lossless / b-intra / no-splitrd-skip / rdpenalty=0 / psy-rd=2.00 / psy-rdoq=2.00 / no-rd-refine / no-lossless / cbqpoffs=0 / crqpoffs=0 / rc=crf / crf=14.0 / qcomp=0.60 / qpstep=4 / stats-write=0 / stats-read=0 / vbv-maxrate=160000 / vbv-bufsize=160000 / vbv-init=0.9 / min-vbv-fullness=50.0 / max-vbv-fullness=80.0 / crf-max=0.0 / crf-min=0.0 / ipratio=1.30 / pbratio=1.20 / aq-mode=4 / aq-strength=0.90 / no-cutree / zone-count=0 / no-strict-cbr / qg-size=32 / no-rc-grain / qpmax=69 / qpmin=0 / no-const-vbv / sar=0 / overscan=0 / videoformat=5 / range=0 / colorprim=9 / transfer=16 / colormatrix=9 / chromaloc=1 / chromaloc-top=2 / chromaloc-bottom=2 / display-window=0 / master-display=G(8500,39850)B(6550,2300)R(35400,14600)WP(15635,16450)L(10000000,1) / cll=1000,206 / min-luma=0 / max-luma=1023 / log2-max-poc-lsb=8 / vui-timing-info / vui-hrd-info / slices=1 / no-opt-qp-pps / no-opt-ref-list-length-pps / no-multi-pass-opt-rps / scenecut-bias=0.05 / hist-threshold=0.03 / no-opt-cu-delta-qp / no-aq-motion / hdr10 / hdr10-opt / no-dhdr10-opt / no-idr-recovery-sei / analysis-reuse-level=0 / analysis-save-reuse-level=0 / analysis-load-reuse-level=0 / scale-factor=0 / refine-intra=0 / refine-inter=0 / refine-mv=1 / refine-ctu-distortion=0 / no-limit-sao / ctu-info=0 / no-lowpass-dct / refine-analysis-type=0 / copy-pic=1 / max-ausize-factor=1.0 / no-dynamic-refine / no-single-sei / no-hevc-aq / no-svt / no-field / qp-adaptation-range=1.00 / scenecut-aware-qp=0conformance-window-offsets / right=0 / bottom=0 / decoder-max-rate=0 / no-vbv-live-multi-pass
  33. Language                    : English
  34. Default                     : Yes
  35. Forced                      : No
  36. Color range                 : Limited
  37. Color primaries             : BT.2020
  38. Transfer characteristics    : PQ
  39. Matrix coefficients         : BT.2020 non-constant
  40. Mastering display color pri : BT.2020
  41. Mastering display luminance : min: 0.0001 cd/m2, max: 1000 cd/m2
  42. Maximum Content Light Level : 1000 cd/m2
  43. Maximum Frame-Average Light : 206 cd/m2
  44.  
  45. Audio #1
  46. ID                          : 2
  47. Format                      : E-AC-3
  48. Format/Info                 : Enhanced AC-3
  49. Commercial name             : Dolby Digital Plus
  50. Format profile              : Blu-ray Disc
  51. Format settings             : Dolby Surround EX
  52. Codec ID                    : A_EAC3
  53. Duration                    : 2 h 19 min
  54. Bit rate mode               : Constant
  55. Bit rate                    : 1 536 kb/s
  56. Channel(s)                  : 8 channels
  57. Channel layout              : L R C LFE Ls Rs Lb Rb
  58. Sampling rate               : 48.0 kHz
  59. Frame rate                  : 31.250 FPS (1536 SPF)
  60. Compression mode            : Lossy
  61. Stream size                 : 1.49 GiB (9%)
  62. Language                    : English
  63. Service kind                : Complete Main
  64. Default                     : Yes
  65. Forced                      : No
  66.  
  67. Audio #2
  68. ID                          : 3
  69. Format                      : AC-3
  70. Format/Info                 : Audio Coding 3
  71. Commercial name             : Dolby Digital
  72. Codec ID                    : A_AC3
  73. Duration                    : 2 h 19 min
  74. Bit rate mode               : Constant
  75. Bit rate                    : 192 kb/s
  76. Channel(s)                  : 2 channels
  77. Channel layout              : L R
  78. Sampling rate               : 48.0 kHz
  79. Frame rate                  : 31.250 FPS (1536 SPF)
  80. Compression mode            : Lossy
  81. Stream size                 : 191 MiB (1%)
  82. Title                       : Commentary with writers/directors Daniel Kwan and Daniel Scheinert
  83. Language                    : English
  84. Service kind                : Complete Main
  85. Default                     : No
  86. Forced                      : No
  87.  
  88. Text #1
  89. ID                          : 4
  90. Format                      : UTF-8
  91. Codec ID                    : S_TEXT/UTF8
  92. Codec ID/Info               : UTF-8 Plain Text
  93. Duration                    : 2 h 10 min
  94. Bit rate                    : 43 b/s
  95. Count of elements           : 1469
  96. Stream size                 : 41.5 KiB (0%)
  97. Language                    : English
  98. Default                     : No
  99. Forced                      : No
  100.  
  101. Text #2
  102. ID                          : 5
  103. Format                      : UTF-8
  104. Codec ID                    : S_TEXT/UTF8
  105. Codec ID/Info               : UTF-8 Plain Text
  106. Duration                    : 2 h 17 min
  107. Bit rate                    : 71 b/s
  108. Count of elements           : 1890
  109. Stream size                 : 71.9 KiB (0%)
  110. Language                    : Vietnamese
  111. Default                     : No
  112. Forced                      : No
  113.  
  114. Text #3
  115. ID                          : 6
  116. Format                      : PGS
  117. Muxing mode                 : zlib
  118. Codec ID                    : S_HDMV/PGS
  119. Codec ID/Info               : Picture based subtitle format used on BDs/HD-DVDs
  120. Duration                    : 2 h 15 min
  121. Bit rate                    : 41.9 kb/s
  122. Count of elements           : 4242
  123. Stream size                 : 40.6 MiB (0%)
  124. Title                       : SDH
  125. Language                    : English
  126. Default                     : No
  127. Forced                      : No
  128.  
  129. Text #4
  130. ID                          : 7
  131. Format                      : UTF-8
  132. Codec ID                    : S_TEXT/UTF8
  133. Codec ID/Info               : UTF-8 Plain Text
  134. Duration                    : 2 h 17 min
  135. Bit rate                    : 52 b/s
  136. Count of elements           : 1960
  137. Stream size                 : 52.9 KiB (0%)
  138. Language                    : Romanian
  139. Default                     : No
  140. Forced                      : No
  141.  
  142. Menu
  143. 00:00:00.000                : en:Chapter 01
  144. 00:07:04.966                : en:Chapter 02
  145. 00:07:05.050                : en:Chapter 03
  146. 00:11:45.622                : en:Chapter 04
  147. 00:11:45.705                : en:Chapter 05
  148. 00:24:55.244                : en:Chapter 06
  149. 00:24:55.327                : en:Chapter 07
  150. 00:32:52.179                : en:Chapter 08
  151. 00:32:52.262                : en:Chapter 09
  152. 00:42:08.025                : en:Chapter 10
  153. 00:42:08.109                : en:Chapter 11
  154. 00:52:26.518                : en:Chapter 12
  155. 00:52:26.602                : en:Chapter 13
  156. 01:01:51.541                : en:Chapter 14
  157. 01:01:51.625                : en:Chapter 15
  158. 01:10:27.890                : en:Chapter 16
  159. 01:10:27.974                : en:Chapter 17
  160. 01:17:08.958                : en:Chapter 18
  161. 01:17:09.041                : en:Chapter 19
  162. 01:25:09.021                : en:Chapter 20
  163. 01:25:09.104                : en:Chapter 21
  164. 01:31:54.426                : en:Chapter 22
  165. 01:31:54.509                : en:Chapter 23
  166. 01:39:50.735                : en:Chapter 24
  167. 01:39:50.818                : en:Chapter 25
  168. 01:51:25.596                : en:Chapter 26
  169. 01:51:25.679                : en:Chapter 27
  170. 01:59:09.059                : en:Chapter 28
  171. 01:59:09.142                : en:Chapter 29
  172. 02:10:08.384                : en:Chapter 30
  173. 02:10:08.467                : en:Chapter 31
  174.  
Advertisement
RAW Paste Data Copied
Advertisement