Guest User

Thirteen.2003.1080p.BluRay.DD5.1.x264-VietHD

a guest
Jun 18th, 2019
56
Never
Not a member of Pastebin yet? Sign Up, it unlocks many cool features!
  1. General
  2. Unique ID                                : 210344413876249055814309584163445557056 (0x9E3EDC4BD14F44B49F3FE8EDD79A4740)
  3. Complete name                            : Thirteen.2003.1080p.BluRay.DD5.1.x264-VietHD.mkv
  4. Format                                   : Matroska
  5. Format version                           : Version 4
  6. File size                                : 14.2 GiB
  7. Duration                                 : 1 h 40 min
  8. Overall bit rate                         : 20.3 Mb/s
  9. Encoded date                             : UTC 2017-04-04 09:37:27
  10. Writing application                      : mkvmerge v9.7.1 ('Pandemonium') 64bit
  11. Writing library                          : libebml v1.3.4 + libmatroska v1.4.5
  12.  
  13. Video
  14. ID                                       : 5
  15. Format                                   : AVC
  16. Format/Info                              : Advanced Video Codec
  17. Format profile                           : High@L4.1
  18. Format settings                          : CABAC / 4 Ref Frames
  19. Format settings, CABAC                   : Yes
  20. Format settings, Reference frames        : 4 frames
  21. Codec ID                                 : V_MPEG4/ISO/AVC
  22. Duration                                 : 1 h 40 min
  23. Bit rate                                 : 19.2 Mb/s
  24. Width                                    : 1 916 pixels
  25. Height                                   : 1 040 pixels
  26. Display aspect ratio                     : 1.85:1
  27. Frame rate mode                          : Constant
  28. Frame rate                               : 23.976 (24000/1001) FPS
  29. Color space                              : YUV
  30. Chroma subsampling                       : 4:2:0
  31. Bit depth                                : 8 bits
  32. Scan type                                : Progressive
  33. Bits/(Pixel*Frame)                       : 0.402
  34. Stream size                              : 13.4 GiB (95%)
  35. Writing library                          : x264 core 148 r2744kMod b97ae06
  36. Encoding settings                        : cabac=1 / ref=4 / deblock=1:-3:-3 / analyse=0x3:0x133 / me=umh / subme=10 / psy=1 / fade_compensate=0.00 / psy_rd=1.00:0.00 / mixed_ref=1 / me_range=24 / chroma_me=1 / trellis=2 / 8x8dct=1 / cqm=0 / deadzone=21,11 / fast_pskip=0 / chroma_qp_offset=-2 / threads=56 / lookahead_threads=8 / sliced_threads=0 / nr=0 / decimate=0 / interlaced=0 / bluray_compat=0 / constrained_intra=0 / bframes=8 / b_pyramid=2 / b_adapt=2 / b_bias=0 / direct=3 / weightb=1 / open_gop=0 / weightp=2 / keyint=250 / keyint_min=23 / scenecut=40 / intra_refresh=0 / rc_lookahead=60 / rc=crf / mbtree=0 / crf=19.0000 / qcomp=0.60 / qpmin=0 / qpmax=69 / qpstep=4 / vbv_maxrate=62500 / vbv_bufsize=78125 / crf_max=0.0 / nal_hrd=none / filler=0 / ip_ratio=1.30 / pb_ratio=1.20 / aq=3:0.70
  37. Language                                 : English
  38. Default                                  : Yes
  39. Forced                                   : No
  40. Color range                              : Limited
  41. Matrix coefficients                      : BT.709
  42.  
  43. Audio #1
  44. ID                                       : 1
  45. Format                                   : AC-3
  46. Format/Info                              : Audio Coding 3
  47. Commercial name                          : Dolby Digital
  48. Codec ID                                 : A_AC3
  49. Duration                                 : 1 h 39 min
  50. Bit rate mode                            : Constant
  51. Bit rate                                 : 640 kb/s
  52. Channel(s)                               : 6 channels
  53. Channel layout                           : L R C LFE Ls Rs
  54. Sampling rate                            : 48.0 kHz
  55. Frame rate                               : 31.250 FPS (1536 SPF)
  56. Bit depth                                : 16 bits
  57. Compression mode                         : Lossy
  58. Stream size                              : 458 MiB (3%)
  59. Language                                 : English
  60. Service kind                             : Complete Main
  61. Default                                  : Yes
  62. Forced                                   : No
  63.  
  64. Audio #2
  65. ID                                       : 2
  66. Format                                   : AC-3
  67. Format/Info                              : Audio Coding 3
  68. Commercial name                          : Dolby Digital
  69. Codec ID                                 : A_AC3
  70. Duration                                 : 1 h 39 min
  71. Bit rate mode                            : Constant
  72. Bit rate                                 : 448 kb/s
  73. Channel(s)                               : 2 channels
  74. Channel layout                           : L R
  75. Sampling rate                            : 48.0 kHz
  76. Frame rate                               : 31.250 FPS (1536 SPF)
  77. Bit depth                                : 16 bits
  78. Compression mode                         : Lossy
  79. Stream size                              : 320 MiB (2%)
  80. Title                                    : Audio Commentary.
  81. Language                                 : English
  82. Service kind                             : Complete Main
  83. Default                                  : No
  84. Forced                                   : No
  85.  
  86. Text #1
  87. ID                                       : 3
  88. Format                                   : UTF-8
  89. Codec ID                                 : S_TEXT/UTF8
  90. Codec ID/Info                            : UTF-8 Plain Text
  91. Duration                                 : 1 h 38 min
  92. Bit rate                                 : 49 b/s
  93. Count of elements                        : 1015
  94. Stream size                              : 35.5 KiB (0%)
  95. Language                                 : English
  96. Default                                  : No
  97. Forced                                   : No
  98.  
  99. Text #2
  100. ID                                       : 4
  101. Format                                   : UTF-8
  102. Codec ID                                 : S_TEXT/UTF8
  103. Codec ID/Info                            : UTF-8 Plain Text
  104. Duration                                 : 1 h 38 min
  105. Bit rate                                 : 34 b/s
  106. Count of elements                        : 857
  107. Stream size                              : 25.1 KiB (0%)
  108. Language                                 : Norwegian
  109. Default                                  : No
  110. Forced                                   : No
  111.  
  112. Menu
  113. 00:00:00.000                             : en:00:00:00.000
  114. 00:07:34.417                             : en:00:07:34.417
  115. 00:15:27.917                             : en:00:15:27.917
  116. 00:23:07.375                             : en:00:23:07.375
  117. 00:31:38.875                             : en:00:31:38.875
  118. 00:42:05.500                             : en:00:42:05.500
  119. 00:55:23.291                             : en:00:55:23.291
  120. 01:06:21.959                             : en:01:06:21.959
  121. 01:16:55.583                             : en:01:16:55.583
  122. 01:25:38.125                             : en:01:25:38.125
  123. 01:34:48.667                             : en:01:34:48.667
  124. 01:39:55.959                             : en:01:39:55.959
RAW Paste Data