G2A Many GEOs
SHARE
TWEET

Untitled

seleZennet Feb 18th, 2020 76 Never
Not a member of Pastebin yet? Sign Up, it unlocks many cool features!
  1. General
  2. Unique ID                   : 14716973381861044575132096419890333138 (0xB1262CF1B266C102169348EB9C605D2)
  3. Complete name               : E:\Video111\Villains.2019.BDRip.720p.seleZen.mkv
  4. Format                      : Matroska
  5. Format version              : Version 4
  6. File size                   : 2.84 GiB
  7. Duration                    : 1 h 29 min
  8. Overall bit rate            : 4 521 kb/s
  9. Movie name                  : Villains 2019 from селезень
  10. Encoded date                : UTC 2020-02-19 01:20:10
  11. Writing application         : mkvmerge v40.0.0 ('Old Town Road + Pony') 64-bit
  12. Writing library             : libebml v1.3.9 + libmatroska v1.5.2
  13.  
  14. Video
  15. ID                          : 1
  16. Format                      : AVC
  17. Format/Info                 : Advanced Video Codec
  18. Format profile              : High@L4.1
  19. Format settings             : CABAC / 12 Ref Frames
  20. Format settings, CABAC      : Yes
  21. Format settings, Reference  : 12 frames
  22. Codec ID                    : V_MPEG4/ISO/AVC
  23. Duration                    : 1 h 29 min
  24. Bit rate                    : 3 500 kb/s
  25. Width                       : 1 280 pixels
  26. Height                      : 534 pixels
  27. Display aspect ratio        : 2.40:1
  28. Frame rate mode             : Constant
  29. Frame rate                  : 23.976 (24000/1001) FPS
  30. Color space                 : YUV
  31. Chroma subsampling          : 4:2:0
  32. Bit depth                   : 8 bits
  33. Scan type                   : Progressive
  34. Bits/(Pixel*Frame)          : 0.214
  35. Stream size                 : 2.19 GiB (77%)
  36. Title                       : Encoded by seleZen
  37. Writing library             : x264 core 142 r2431+42 c69a006 tMod [8-bit@all X86_64]
  38. Encoding settings           : cabac=1 / ref=12 / deblock=1:-2:-2 / analyse=0x3:0x133 / me=umh / subme=10 / psy=1 / fade_compensate=0.00 / psy_rd=1.00:0.00 / mixed_ref=1 / me_range=32 / chroma_me=1 / trellis=2 / 8x8dct=1 / cqm=0 / deadzone=21,11 / fast_pskip=0 / chroma_qp_offset=-2 / threads=24 / lookahead_threads=4 / sliced_threads=0 / nr=0 / decimate=0 / interlaced=0 / bluray_compat=0 / constrained_intra=0 / fgo=0 / bframes=8 / b_pyramid=2 / b_adapt=2 / b_bias=0 / direct=3 / weightb=1 / open_gop=0 / weightp=2 / keyint=240 / keyint_min=23 / scenecut=40 / intra_refresh=0 / rc_lookahead=50 / rc=2pass / mbtree=0 / bitrate=3500 / ratetol=1.0 / qcomp=0.60 / qpmin=0:0:0 / qpmax=51:51:51 / qpstep=4 / cplxblur=20.0 / qblur=0.5 / vbv_maxrate=50000 / vbv_bufsize=62500 / nal_hrd=none / filler=0 / ip_ratio=1.40 / pb_ratio=1.30 / aq=3:0.80 / aq-sensitivity=10.00 / aq-factor=1.00:1.00:1.00 / aq2=0 / aq3=0
  39. Language                    : English
  40. Default                     : Yes
  41. Forced                      : No
  42.  
  43. Audio #1
  44. ID                          : 2
  45. Format                      : AC-3
  46. Format/Info                 : Audio Coding 3
  47. Commercial name             : Dolby Digital
  48. Codec ID                    : A_AC3
  49. Duration                    : 1 h 29 min
  50. Bit rate mode               : Constant
  51. Bit rate                    : 384 kb/s
  52. Channel(s)                  : 6 channels
  53. Channel layout              : L R C LFE Ls Rs
  54. Sampling rate               : 48.0 kHz
  55. Frame rate                  : 31.250 FPS (1536 SPF)
  56. Compression mode            : Lossy
  57. Delay relative to video     : 15 ms
  58. Stream size                 : 247 MiB (8%)
  59. Title                       : iTunes
  60. Language                    : Russian
  61. Service kind                : Complete Main
  62. Default                     : Yes
  63. Forced                      : Yes
  64.  
  65. Audio #2
  66. ID                          : 3
  67. Format                      : AC-3
  68. Format/Info                 : Audio Coding 3
  69. Commercial name             : Dolby Digital
  70. Codec ID                    : A_AC3
  71. Duration                    : 1 h 29 min
  72. Bit rate mode               : Constant
  73. Bit rate                    : 640 kb/s
  74. Channel(s)                  : 6 channels
  75. Channel layout              : L R C LFE Ls Rs
  76. Sampling rate               : 48.0 kHz
  77. Frame rate                  : 31.250 FPS (1536 SPF)
  78. Compression mode            : Lossy
  79. Stream size                 : 411 MiB (14%)
  80. Title                       : Original
  81. Language                    : English
  82. Service kind                : Complete Main
  83. Default                     : No
  84. Forced                      : No
  85.  
  86. Text #1
  87. ID                          : 4
  88. Format                      : UTF-8
  89. Codec ID                    : S_TEXT/UTF8
  90. Codec ID/Info               : UTF-8 Plain Text
  91. Duration                    : 1 h 29 min
  92. Bit rate                    : 78 b/s
  93. Count of elements           : 1082
  94. Stream size                 : 51.5 KiB (0%)
  95. Title                       : Full
  96. Language                    : Russian
  97. Default                     : No
  98. Forced                      : No
  99.  
  100. Text #2
  101. ID                          : 5
  102. Format                      : UTF-8
  103. Codec ID                    : S_TEXT/UTF8
  104. Codec ID/Info               : UTF-8 Plain Text
  105. Duration                    : 1 h 24 min
  106. Bit rate                    : 62 b/s
  107. Count of elements           : 1292
  108. Stream size                 : 38.6 KiB (0%)
  109. Title                       : Full
  110. Language                    : English
  111. Default                     : No
  112. Forced                      : No
  113.  
  114. Menu
  115. 00:00:00.000                : en:Chapter 01
  116. 00:10:00.975                : en:Chapter 02
  117. 00:20:01.826                : en:Chapter 03
  118. 00:30:02.718                : en:Chapter 04
  119. 00:40:02.900                : en:Chapter 05
  120. 00:50:03.125                : en:Chapter 06
  121. 01:00:03.975                : en:Chapter 07
  122. 01:10:04.450                : en:Chapter 08
  123. 01:20:04.967                : en:Chapter 09
RAW Paste Data
We use cookies for various purposes including analytics. By continuing to use Pastebin, you agree to our use of cookies as described in the Cookies Policy. OK, I Understand
Top