SHARE
TWEET

Like.Crazy.2011.LIMITED.1080p.BluRay.x264-SPARKS

a guest Jun 3rd, 2019 17 Never
Not a member of Pastebin yet? Sign Up, it unlocks many cool features!
  1. General
  2. Unique ID                                : 171392060984194752793281302048185713841 (0x80F0E90602D017468C8E6A8F2D7704B1)
  3. Complete name                            : Like.Crazy.2011.LIMITED.1080p.BluRay.x264-SPARKS.mkv
  4. Format                                   : Matroska
  5. Format version                           : Version 2
  6. File size                                : 6.56 GiB
  7. Duration                                 : 1 h 30 min
  8. Overall bit rate                         : 10.4 Mb/s
  9. Encoded date                             : UTC 2012-02-21 19:56:33
  10. Writing application                      : mkvmerge v5.1.0 ('And so it goes') built on Nov 28 2011 23:58:28
  11. Writing library                          : libebml v1.2.3 + libmatroska v1.3.0
  12.  
  13. Video
  14. ID                                       : 1
  15. Format                                   : AVC
  16. Format/Info                              : Advanced Video Codec
  17. Format profile                           : High@L4.1
  18. Format settings                          : CABAC / 4 Ref Frames
  19. Format settings, CABAC                   : Yes
  20. Format settings, Reference frames        : 4 frames
  21. Muxing mode                              : Header stripping
  22. Codec ID                                 : V_MPEG4/ISO/AVC
  23. Duration                                 : 1 h 30 min
  24. Bit rate                                 : 8 918 kb/s
  25. Width                                    : 1 920 pixels
  26. Height                                   : 1 080 pixels
  27. Display aspect ratio                     : 16:9
  28. Frame rate mode                          : Constant
  29. Frame rate                               : 23.976 FPS
  30. Color space                              : YUV
  31. Chroma subsampling                       : 4:2:0
  32. Bit depth                                : 8 bits
  33. Scan type                                : Progressive
  34. Bits/(Pixel*Frame)                       : 0.179
  35. Stream size                              : 5.48 GiB (84%)
  36. Writing library                          : x264 core 120 r2164 da19765
  37. Encoding settings                        : cabac=1 / ref=4 / deblock=1:0:0 / analyse=0x3:0x133 / me=umh / subme=7 / psy=1 / psy_rd=1.00:0.00 / mixed_ref=1 / me_range=16 / chroma_me=1 / trellis=1 / 8x8dct=1 / cqm=0 / deadzone=21,11 / fast_pskip=0 / chroma_qp_offset=-2 / threads=18 / sliced_threads=0 / nr=0 / decimate=1 / interlaced=0 / bluray_compat=0 / constrained_intra=0 / bframes=3 / b_pyramid=2 / b_adapt=1 / b_bias=0 / direct=1 / weightb=1 / open_gop=0 / weightp=2 / keyint=250 / keyint_min=23 / scenecut=40 / intra_refresh=0 / rc_lookahead=40 / rc=2pass / mbtree=1 / bitrate=8918 / ratetol=1.0 / qcomp=0.60 / qpmin=0 / qpmax=69 / qpstep=4 / cplxblur=20.0 / qblur=0.5 / ip_ratio=1.40 / aq=1:1.00
  38. Language                                 : English
  39. Default                                  : Yes
  40. Forced                                   : No
  41.  
  42. Audio
  43. ID                                       : 2
  44. Format                                   : DTS
  45. Format/Info                              : Digital Theater Systems
  46. Muxing mode                              : Header stripping
  47. Codec ID                                 : A_DTS
  48. Duration                                 : 1 h 30 min
  49. Bit rate mode                            : Constant
  50. Bit rate                                 : 1 509 kb/s
  51. Channel(s)                               : 6 channels
  52. Channel layout                           : C L R Ls Rs LFE
  53. Sampling rate                            : 48.0 kHz
  54. Frame rate                               : 93.750 FPS (512 SPF)
  55. Bit depth                                : 24 bits
  56. Compression mode                         : Lossy
  57. Stream size                              : 972 MiB (14%)
  58. Language                                 : English
  59. Default                                  : Yes
  60. Forced                                   : No
  61.  
  62. Text #1
  63. ID                                       : 3
  64. Format                                   : UTF-8
  65. Codec ID                                 : S_TEXT/UTF8
  66. Codec ID/Info                            : UTF-8 Plain Text
  67. Language                                 : English
  68. Default                                  : No
  69. Forced                                   : No
  70.  
  71. Text #2
  72. ID                                       : 4
  73. Format                                   : UTF-8
  74. Codec ID                                 : S_TEXT/UTF8
  75. Codec ID/Info                            : UTF-8 Plain Text
  76. Language                                 : English
  77. Default                                  : No
  78. Forced                                   : No
RAW Paste Data
We use cookies for various purposes including analytics. By continuing to use Pastebin, you agree to our use of cookies as described in the Cookies Policy. OK, I Understand
 
Top