Need a unique gift idea?
A Pastebin account makes a great Christmas gift
SHARE
TWEET

ranpha

a guest Feb 11th, 2011 1,098 Never
Upgrade to PRO!
ENDING IN00days00hours00mins00secs
 
  1. General
  2. Complete name                    : D:\history_chan_hd_sample_interlaced.mkv
  3. Format                           : Matroska
  4. File size                        : 198 MiB
  5. Duration                         : 1mn 45s
  6. Overall bit rate                 : 15.7 Mbps
  7. Encoded date                     : UTC 2009-12-20 11:52:10
  8. Writing application              : gdsmux
  9. Writing library                  : Haali DirectShow Matroska Muxer 1.8.122.18
  10.  
  11. Video
  12. ID                               : 1
  13. Format                           : AVC
  14. Format/Info                      : Advanced Video Codec
  15. Format profile                   : High@L4.0
  16. Format settings, CABAC           : Yes
  17. Format settings, ReFrames        : 4 frames
  18. Format settings, GOP             : M=1, N=24
  19. Muxing mode                      : Container profile=Unknown@4.0
  20. Codec ID                         : V_MPEG4/ISO/AVC
  21. Duration                         : 1mn 45s
  22. Bit rate                         : 15.2 Mbps
  23. Width                            : 1 920 pixels
  24. Height                           : 1 080 pixels
  25. Display aspect ratio             : 16:9
  26. Frame rate                       : 25.000 fps
  27. Color space                      : YUV
  28. Chroma subsampling               : 4:2:0
  29. Bit depth                        : 8 bits
  30. Scan type                        : Interlaced
  31. Bits/(Pixel*Frame)               : 0.293
  32. Stream size                      : 191 MiB (96%)
  33. Title                            : PID 514
  34. Color primaries                  : BT.709-5, BT.1361, IEC 61966-2-4, SMPTE RP177
  35. Transfer characteristics         : BT.709-5, BT.1361
  36. Matrix coefficients              : BT.709-5, BT.1361, IEC 61966-2-4 709, SMPTE RP177
  37.  
  38. Audio
  39. ID                               : 2
  40. Format                           : MPEG Audio
  41. Format version                   : Version 1
  42. Format profile                   : Layer 2
  43. Codec ID                         : A_MPEG/L2
  44. Codec ID/Hint                    : MP2
  45. Duration                         : 1mn 45s
  46. Bit rate mode                    : Constant
  47. Bit rate                         : 256 Kbps
  48. Channel(s)                       : 2 channels
  49. Sampling rate                    : 48.0 KHz
  50. Video delay                      : -123ms
  51. Stream size                      : 3.22 MiB (2%)
  52. Title                            : PID 648
  53. Language                         : English
RAW Paste Data
We use cookies for various purposes including analytics. By continuing to use Pastebin, you agree to our use of cookies as described in the Cookies Policy. OK, I Understand
 
Top