SHARE
TWEET

Untitled

a guest Jan 18th, 2018 288 Never
Not a member of Pastebin yet? Sign Up, it unlocks many cool features!
  1. C:\ffmpeg\bin>ffmpeg -i rtsp://admin:XXXX@213.131.XX.XXX:554/Streaming/channe
  2. ls/101 -qscale 2 out.avi
  3. ffmpeg version N-89803-g856b7cae9f Copyright (c) 2000-2018 the FFmpeg developers
  4.  
  5.   built with gcc 7.2.0 (GCC)
  6.   configuration: --enable-gpl --enable-version3 --enable-sdl2 --enable-bzlib --e
  7. nable-fontconfig --enable-gnutls --enable-iconv --enable-libass --enable-libblur
  8. ay --enable-libfreetype --enable-libmp3lame --enable-libopencore-amrnb --enable-
  9. libopencore-amrwb --enable-libopenjpeg --enable-libopus --enable-libshine --enab
  10. le-libsnappy --enable-libsoxr --enable-libtheora --enable-libtwolame --enable-li
  11. bvpx --enable-libwavpack --enable-libwebp --enable-libx264 --enable-libx265 --en
  12. able-libxml2 --enable-libzimg --enable-lzma --enable-zlib --enable-gmp --enable-
  13. libvidstab --enable-libvorbis --enable-libvo-amrwbenc --enable-libmysofa --enabl
  14. e-libspeex --enable-amf --enable-cuda --enable-cuvid --enable-d3d11va --enable-n
  15. venc --enable-dxva2 --enable-avisynth --enable-libmfx
  16.   libavutil      56.  7.100 / 56.  7.100
  17.   libavcodec     58.  9.100 / 58.  9.100
  18.   libavformat    58.  3.100 / 58.  3.100
  19.   libavdevice    58.  0.100 / 58.  0.100
  20.   libavfilter     7. 11.101 /  7. 11.101
  21.   libswscale      5.  0.101 /  5.  0.101
  22.   libswresample   3.  0.101 /  3.  0.101
  23.   libpostproc    55.  0.100 / 55.  0.100
  24. [udp @ 0000006ca599c900] 'circular_buffer_size' option was set but it is not sup
  25. ported on this build (pthread support is required)
  26. [udp @ 0000006ca59af640] 'circular_buffer_size' option was set but it is not sup
  27. ported on this build (pthread support is required)
  28. [udp @ 0000006ca59c0280] 'circular_buffer_size' option was set but it is not sup
  29. ported on this build (pthread support is required)
  30. [udp @ 0000006ca59d0540] 'circular_buffer_size' option was set but it is not sup
  31. ported on this build (pthread support is required)
  32. [h264 @ 0000006ca599da80] non-existing PPS 0 referenced
  33.     Last message repeated 1 times
  34. [h264 @ 0000006ca599da80] decode_slice_header error
  35. [h264 @ 0000006ca599da80] no frame!
  36. [h264 @ 0000006ca599da80] non-existing PPS 0 referenced
  37.     Last message repeated 1 times
  38. [h264 @ 0000006ca599da80] decode_slice_header error
  39. [h264 @ 0000006ca599da80] no frame!
  40. [h264 @ 0000006ca599da80] non-existing PPS 0 referenced
  41.     Last message repeated 1 times
  42. [h264 @ 0000006ca599da80] decode_slice_header error
  43. [h264 @ 0000006ca599da80] no frame!
  44. [h264 @ 0000006ca599da80] non-existing PPS 0 referenced
  45.     Last message repeated 1 times
  46. [h264 @ 0000006ca599da80] decode_slice_header error
  47. [h264 @ 0000006ca599da80] no frame!
  48. [h264 @ 0000006ca599da80] non-existing PPS 0 referenced
  49.     Last message repeated 1 times
  50. [h264 @ 0000006ca599da80] decode_slice_header error
  51. [h264 @ 0000006ca599da80] no frame!
  52. [h264 @ 0000006ca599da80] non-existing PPS 0 referenced
  53.     Last message repeated 1 times
  54. [h264 @ 0000006ca599da80] decode_slice_header error
  55. [h264 @ 0000006ca599da80] no frame!
  56. [h264 @ 0000006ca599da80] non-existing PPS 0 referenced
  57.     Last message repeated 1 times
  58. [h264 @ 0000006ca599da80] decode_slice_header error
  59. [h264 @ 0000006ca599da80] no frame!
  60. [h264 @ 0000006ca599da80] non-existing PPS 0 referenced
  61.     Last message repeated 1 times
  62. [h264 @ 0000006ca599da80] decode_slice_header error
  63. [h264 @ 0000006ca599da80] no frame!
  64. [rtsp @ 0000006ca5999b80] max delay reached. need to consume packet
  65. [rtsp @ 0000006ca5999b80] RTP: missed -47363 packets
  66. [rtsp @ 0000006ca5999b80] max delay reached. need to consume packet
  67. [rtsp @ 0000006ca5999b80] RTP: missed -47362 packets
  68. Guessed Channel Layout for Input Stream #0.1 : mono
  69. Input #0, rtsp, from 'rtsp://admin:XXXXXX@213.XX.XX.XX:554/Streaming/channels
  70. /101':
  71.   Metadata:
  72.     title           : HIK Media Server
  73.     comment         : HIK Media Server Session Description : standard
  74.   Duration: N/A, start: 0.000000, bitrate: N/A
  75.     Stream #0:0: Video: h264 (Main), yuv420p(progressive), 1280x720, 20 fps, 20
  76. tbr, 90k tbn, 40 tbc
  77.     Stream #0:1: Audio: pcm_mulaw, 8000 Hz, mono, s16, 64 kb/s
  78. Please use -q:a or -q:v, -qscale is ambiguous
  79. Stream mapping:
  80.   Stream #0:0 -> #0:0 (h264 (native) -> mpeg4 (native))
  81.   Stream #0:1 -> #0:1 (pcm_mulaw (native) -> mp3 (libmp3lame))
  82. Press [q] to stop, [?] for help
  83. Output #0, avi, to 'out.avi':
  84.   Metadata:
  85.     INAM            : HIK Media Server
  86.     ICMT            : HIK Media Server Session Description : standard
  87.     ISFT            : Lavf58.3.100
  88.     Stream #0:0: Video: mpeg4 (FMP4 / 0x34504D46), yuv420p, 1280x720, q=2-31, 20
  89. 0 kb/s, 20 fps, 20 tbn, 20 tbc
  90.     Metadata:
  91.       encoder         : Lavc58.9.100 mpeg4
  92.     Side data:
  93.       cpb: bitrate max/min/avg: 0/0/200000 buffer size: 0 vbv_delay: -1
  94.     Stream #0:1: Audio: mp3 (libmp3lame) (U[0][0][0] / 0x0055), 8000 Hz, mono, s
  95. 16p
  96.     Metadata:
  97.       encoder         : Lavc58.9.100 libmp3lame
  98. [rtsp @ 0000006ca5999b80] max delay reached. need to consume packet
  99. [rtsp @ 0000006ca5999b80] RTP: missed -47399 packets
  100. [rtsp @ 0000006ca5999b80] max delay reached. need to consume packet
  101. [rtsp @ 0000006ca5999b80] RTP: missed -47398 packets
  102. frame=   33 fps=0.0 q=2.0 size=     266kB time=00:01:44.90 bitrate=  20.8kbits/s
  103. frame=   44 fps= 44 q=2.0 size=     522kB time=00:02:18.16 bitrate=  30.9kbits/s
  104. frame=   56 fps= 34 q=2.0 size=     778kB time=00:02:54.02 bitrate=  36.6kbits/s
  105. [rtsp @ 0000006ca5999b80] max delay reached. need to consume packet
  106. [rtsp @ 0000006ca5999b80] RTP: missed -47427 packets
  107. [rtsp @ 0000006ca5999b80] max delay reached. need to consume packet
  108. [rtsp @ 0000006ca5999b80] RTP: missed -47426 packets
  109. frame=   66 fps= 31 q=2.0 size=     778kB time=00:03:27.28 bitrate=  30.7kbits/s
  110. frame=   78 fps= 29 q=2.0 size=    1034kB time=00:04:03.28 bitrate=  34.8kbits/s
  111. frame=   87 fps= 27 q=2.0 size=    1290kB time=00:04:36.40 bitrate=  38.2kbits/s
  112. [rtsp @ 0000006ca5999b80] max delay reached. need to consume packet
  113. [rtsp @ 0000006ca5999b80] RTP: missed -47459 packets
  114. [rtsp @ 0000006ca5999b80] max delay reached. need to consume packet
  115. [rtsp @ 0000006ca5999b80] RTP: missed -47458 packets
  116. frame=   98 fps= 26 q=2.0 size=    1290kB time=00:05:02.04 bitrate=  35.0kbits/s
  117. frame=  109 fps= 26 q=2.0 size=    1546kB time=00:05:45.67 bitrate=  36.6kbits/s
  118. [rtsp @ 0000006ca5999b80] max delay reached. need to consume packet
  119. [rtsp @ 0000006ca5999b80] RTP: missed -47491 packets
  120. [rtsp @ 0000006ca5999b80] max delay reached. need to consume packet
  121. [rtsp @ 0000006ca5999b80] RTP: missed -47490 packets
  122. frame=  119 fps= 25 q=2.0 size=    1546kB time=00:06:11.30 bitrate=  34.1kbits/s
  123. frame=  130 fps= 25 q=2.0 size=    1802kB time=00:06:49.68 bitrate=  36.0kbits/s
  124. frame=  140 fps= 24 q=2.0 size=    1802kB time=00:07:25.39 bitrate=  33.1kbits/s
  125. [rtsp @ 0000006ca5999b80] max delay reached. need to consume packet
  126. [rtsp @ 0000006ca5999b80] RTP: missed -47523 packets
  127. [rtsp @ 0000006ca5999b80] max delay reached. need to consume packet
  128. [rtsp @ 0000006ca5999b80] RTP: missed -47522 packets
  129. frame=  150 fps= 24 q=2.0 size=    2058kB time=00:07:53.68 bitrate=  35.6kbits/s
  130. frame=  162 fps= 24 q=2.0 size=    2314kB time=00:08:34.51 bitrate=  36.8kbits/s
  131. frame=  172 fps= 23 q=2.0 size=    2314kB time=00:09:07.77 bitrate=  34.6kbits/s
  132. [rtsp @ 0000006ca5999b80] max delay reached. need to consume packet
  133. [rtsp @ 0000006ca5999b80] RTP: missed -47555 packets
  134. [rtsp @ 0000006ca5999b80] max delay reached. need to consume packet
  135. [rtsp @ 0000006ca5999b80] RTP: missed -47554 packets
  136. frame=  181 fps= 23 q=2.0 size=    2570kB time=00:09:36.07 bitrate=  36.5kbits/s
  137. frame=  193 fps= 23 q=2.0 size=    2826kB time=00:10:11.78 bitrate=  37.8kbits/s
  138. frame=  202 fps= 23 q=2.0 size=    2826kB time=00:10:45.04 bitrate=  35.9kbits/s
  139. [rtsp @ 0000006ca5999b80] max delay reached. need to consume packet
  140. [rtsp @ 0000006ca5999b80] RTP: missed -47587 packets
  141. [rtsp @ 0000006ca5999b80] max delay reached. need to consume packet
  142. [rtsp @ 0000006ca5999b80] RTP: missed -47586 packets
  143. frame=  212 fps= 22 q=2.0 size=    3082kB time=00:11:15.79 bitrate=  37.4kbits/s
  144. frame=  223 fps= 22 q=2.0 size=    3082kB time=00:11:49.05 bitrate=  35.6kbits/s
  145. frame=  234 fps= 22 q=2.0 size=    3338kB time=00:12:19.80 bitrate=  37.0kbits/s
  146. [rtsp @ 0000006ca5999b80] max delay reached. need to consume packet
  147. [rtsp @ 0000006ca5999b80] RTP: missed -47618 packets
  148. [rtsp @ 0000006ca5999b80] max delay reached. need to consume packet
  149. [rtsp @ 0000006ca5999b80] RTP: missed -47617 packets
  150. frame=  243 fps= 22 q=2.0 size=    3338kB time=00:12:53.06 bitrate=  35.4kbits/s
  151. frame=  254 fps= 22 q=2.0 size=    3594kB time=00:13:26.47 bitrate=  36.5kbits/s
  152. frame=  266 fps= 22 q=2.0 size=    3850kB time=00:14:07.29 bitrate=  37.2kbits/s
  153. [rtsp @ 0000006ca5999b80] max delay reached. need to consume packet
  154. [rtsp @ 0000006ca5999b80] RTP: missed 17885 packets
  155. [rtsp @ 0000006ca5999b80] max delay reached. need to consume packet
  156. [rtsp @ 0000006ca5999b80] RTP: missed 17886 packets
  157. frame=  277 fps= 22 q=2.0 size=    3850kB time=00:14:38.04 bitrate=  35.9kbits/s
  158. frame=  287 fps= 22 q=2.0 size=    4106kB time=00:15:16.41 bitrate=  36.7kbits/s
  159. frame=  297 fps= 22 q=2.0 size=    4106kB time=00:15:47.30 bitrate=  35.5kbits/s
  160. [rtsp @ 0000006ca5999b80] max delay reached. need to consume packet
  161. [rtsp @ 0000006ca5999b80] RTP: missed 17853 packets
  162. [rtsp @ 0000006ca5999b80] max delay reached. need to consume packet
  163. [rtsp @ 0000006ca5999b80] RTP: missed 17854 packets
  164. frame=  308 fps= 22 q=2.0 size=    4362kB time=00:16:15.31 bitrate=  36.6kbits/s
  165. frame=  319 fps= 22 q=2.0 size=    4618kB time=00:16:56.28 bitrate=  37.2kbits/s
  166. [rtsp @ 0000006ca5999b80] max delay reached. need to consume packet
  167. [rtsp @ 0000006ca5999b80] RTP: missed 17821 packets
  168. [rtsp @ 0000006ca5999b80] max delay reached. need to consume packet
  169. [rtsp @ 0000006ca5999b80] RTP: missed 17822 packets
  170. frame=  329 fps= 22 q=2.0 size=    4618kB time=00:17:29.68 bitrate=  36.0kbits/s
  171. frame=  341 fps= 22 q=2.0 size=    4874kB time=00:18:05.40 bitrate=  36.8kbits/s
  172. frame=  351 fps= 21 q=2.0 size=    5130kB time=00:18:38.66 bitrate=  37.6kbits/s
  173. [rtsp @ 0000006ca5999b80] max delay reached. need to consume packet
  174. [rtsp @ 0000006ca5999b80] RTP: missed 17789 packets
  175. [rtsp @ 0000006ca5999b80] max delay reached. need to consume packet
  176. [rtsp @ 0000006ca5999b80] RTP: missed 17790 packets
  177. frame=  360 fps= 21 q=2.0 size=    5130kB time=00:19:06.81 bitrate=  36.6kbits/s
  178. frame=  372 fps= 21 q=2.0 size=    5386kB time=00:19:47.78 bitrate=  37.1kbits/s
  179. frame=  382 fps= 21 q=2.0 size=    5386kB time=00:20:16.08 bitrate=  36.3kbits/s
  180. [rtsp @ 0000006ca5999b80] max delay reached. need to consume packet
  181. [rtsp @ 0000006ca5999b80] RTP: missed 17757 packets
  182. [rtsp @ 0000006ca5999b80] max delay reached. need to consume packet
  183. [rtsp @ 0000006ca5999b80] RTP: missed 17758 packets
  184. frame=  391 fps= 21 q=2.0 size=    5642kB time=00:20:46.68 bitrate=  37.1kbits/s
  185. frame=  403 fps= 21 q=2.0 size=    5898kB time=00:21:25.05 bitrate=  37.6kbits/s
  186. frame=  415 fps= 21 q=2.0 size=    5898kB time=00:21:55.80 bitrate=  36.7kbits/s
  187. [rtsp @ 0000006ca5999b80] max delay reached. need to consume packet
  188. [rtsp @ 0000006ca5999b80] RTP: missed 17725 packets
  189. [rtsp @ 0000006ca5999b80] max delay reached. need to consume packet
  190. [rtsp @ 0000006ca5999b80] RTP: missed 17726 packets
  191. frame=  422 fps= 21 q=2.0 size=    6154kB time=00:22:29.06 bitrate=  37.4kbits/s
  192. frame=  434 fps= 21 q=2.0 size=    6154kB time=00:23:04.92 bitrate=  36.4kbits/s
  193. frame=  446 fps= 21 q=2.0 size=    6410kB time=00:23:43.29 bitrate=  36.9kbits/s
  194. [rtsp @ 0000006ca5999b80] max delay reached. need to consume packet
  195. [rtsp @ 0000006ca5999b80] RTP: missed 17694 packets
  196. [rtsp @ 0000006ca5999b80] max delay reached. need to consume packet
  197. [rtsp @ 0000006ca5999b80] RTP: missed 17695 packets
  198. frame=  455 fps= 21 q=2.0 size=    6410kB time=00:24:14.04 bitrate=  36.1kbits/s
  199. frame=  467 fps= 21 q=2.0 size=    6666kB time=00:24:52.41 bitrate=  36.6kbits/s
  200. frame=  476 fps= 21 q=2.0 size=    6922kB time=00:25:20.56 bitrate=  37.3kbits/s
  201. [rtsp @ 0000006ca5999b80] max delay reached. need to consume packet
  202. [rtsp @ 0000006ca5999b80] RTP: missed 17661 packets
  203. [rtsp @ 0000006ca5999b80] max delay reached. need to consume packet
  204. [rtsp @ 0000006ca5999b80] RTP: missed 17662 packets
  205. frame=  486 fps= 21 q=2.0 size=    6922kB time=00:25:51.31 bitrate=  36.6kbits/s
  206. frame=  487 fps= 20 q=2.0 size=    6922kB time=00:25:51.31 bitrate=  36.6kbits/s
  207. [rtsp @ 0000006ca5999b80] max delay reached. need to consume packet
  208. [rtsp @ 0000006ca5999b80] RTP: missed 8 packets
  209. [h264 @ 0000006ca59ef3c0] error while decoding MB 72 34, bytestream -12
  210. [h264 @ 0000006ca59ef3c0] concealing 857 DC, 857 AC, 857 MV errors in I frame
  211. [h264 @ 0000006ca619d880] Increasing reorder buffer to 1
  212. [rtsp @ 0000006ca5999b80] max delay reached. need to consume packet
  213. [rtsp @ 0000006ca5999b80] RTP: missed 17619 packets
  214. [rtsp @ 0000006ca5999b80] max delay reached. need to consume packet
  215. [rtsp @ 0000006ca5999b80] RTP: missed 17620 packets
  216. frame=  515 fps= 21 q=2.0 size=    7434kB time=00:27:51.62 bitrate=  36.4kbits/s
  217. frame=  528 fps= 21 q=2.0 size=    7690kB time=00:28:32.59 bitrate=  36.8kbits/s
  218. [rtsp @ 0000006ca5999b80] max delay reached. need to consume packet
  219. [rtsp @ 0000006ca5999b80] RTP: missed 17597 packets
  220. [rtsp @ 0000006ca5999b80] max delay reached. need to consume packet
  221. [rtsp @ 0000006ca5999b80] RTP: missed 17598 packets
  222. frame=  538 fps= 21 q=2.0 size=    7690kB time=00:29:00.88 bitrate=  36.2kbits/s
  223. frame=  550 fps= 21 q=2.0 size=    7946kB time=00:29:41.71 bitrate=  36.5kbits/s
  224. frame=  559 fps= 21 q=2.0 size=    8202kB time=00:30:09.86 bitrate=  37.1kbits/s
  225. [rtsp @ 0000006ca5999b80] max delay reached. need to consume packet
  226. [rtsp @ 0000006ca5999b80] RTP: missed 17565 packets
  227. [rtsp @ 0000006ca5999b80] max delay reached. need to consume packet
  228. [rtsp @ 0000006ca5999b80] RTP: missed 17566 packets
  229. frame=  569 fps= 21 q=2.0 size=    8202kB time=00:30:43.27 bitrate=  36.5kbits/s
  230. frame=  581 fps= 21 q=2.0 size=    8458kB time=00:31:18.98 bitrate=  36.9kbits/s
  231. [rtsp @ 0000006ca5999b80] max delay reached. need to consume packet
  232. [rtsp @ 0000006ca5999b80] RTP: missed 17533 packets
  233. [rtsp @ 0000006ca5999b80] max delay reached. need to consume packet
  234. [rtsp @ 0000006ca5999b80] RTP: missed 17534 packets
  235. frame=  590 fps= 21 q=2.0 size=    8714kB time=00:31:52.24 bitrate=  37.3kbits/s
  236. frame=  601 fps= 21 q=2.0 size=    8714kB time=00:32:22.99 bitrate=  36.7kbits/s
  237. frame=  602 fps= 20 q=2.0 size=    8714kB time=00:32:22.99 bitrate=  36.7kbits/s
  238. [rtsp @ 0000006ca5999b80] max delay reached. need to consume packet
  239. [rtsp @ 0000006ca5999b80] RTP: missed 17501 packets
  240. [rtsp @ 0000006ca5999b80] max delay reached. need to consume packet
  241. [rtsp @ 0000006ca5999b80] RTP: missed 17502 packets
  242. frame=  626 fps= 20 q=2.0 size=    9226kB time=00:33:42.40 bitrate=  37.4kbits/s
  243. frame=  636 fps= 20 q=2.0 size=    9226kB time=00:34:18.19 bitrate=  36.7kbits/s
  244. frame=  648 fps= 20 q=2.0 size=    9482kB time=00:34:56.56 bitrate=  37.0kbits/s
  245. [rtsp @ 0000006ca5999b80] max delay reached. need to consume packet
  246. [rtsp @ 0000006ca5999b80] RTP: missed 17469 packets
  247. [rtsp @ 0000006ca5999b80] max delay reached. need to consume packet
  248. [rtsp @ 0000006ca5999b80] RTP: missed 17470 packets
  249. frame=  659 fps= 20 q=2.0 size=    9738kB time=00:35:27.31 bitrate=  37.5kbits/s
  250. frame=  670 fps= 20 q=2.0 size=    9738kB time=00:36:05.68 bitrate=  36.8kbits/s
  251. [rtsp @ 0000006ca5999b80] max delay reached. need to consume packet
  252. [rtsp @ 0000006ca5999b80] RTP: missed 17438 packets
  253. [rtsp @ 0000006ca5999b80] max delay reached. need to consume packet
  254. [rtsp @ 0000006ca5999b80] RTP: missed 17439 packets
  255. frame=  680 fps= 20 q=2.0 size=    9994kB time=00:36:36.43 bitrate=  37.3kbits/s
  256. frame=  692 fps= 20 q=2.0 size=   10250kB time=00:37:17.40 bitrate=  37.5kbits/s
  257. frame=  702 fps= 20 q=2.0 size=   10250kB time=00:37:45.62 bitrate=  37.1kbits/s
  258. [rtsp @ 0000006ca5999b80] max delay reached. need to consume packet
  259. [rtsp @ 0000006ca5999b80] RTP: missed 17404 packets
  260. [rtsp @ 0000006ca5999b80] max delay reached. need to consume packet
  261. [rtsp @ 0000006ca5999b80] RTP: missed 17405 packets
  262. frame=  712 fps= 20 q=2.0 size=   10506kB time=00:38:18.81 bitrate=  37.4kbits/s
  263. frame=  723 fps= 20 q=2.0 size=   10762kB time=00:38:54.67 bitrate=  37.8kbits/s
  264. frame=  733 fps= 20 q=2.0 size=   10762kB time=00:39:28.00 bitrate=  37.2kbits/s
  265. [rtsp @ 0000006ca5999b80] max delay reached. need to consume packet
  266. [rtsp @ 0000006ca5999b80] RTP: missed 17374 packets
  267. [rtsp @ 0000006ca5999b80] max delay reached. need to consume packet
  268. [rtsp @ 0000006ca5999b80] RTP: missed 17375 packets
  269. frame=  743 fps= 20 q=2.0 size=   11018kB time=00:39:56.08 bitrate=  37.7kbits/s
  270. frame=  754 fps= 20 q=2.0 size=   11274kB time=00:40:32.01 bitrate=  38.0kbits/s
  271. frame=  765 fps= 20 q=2.0 size=   11274kB time=00:41:05.20 bitrate=  37.5kbits/s
  272. frame=  766 fps= 20 q=2.0 size=   11274kB time=00:41:05.20 bitrate=  37.5kbits/s
  273. [rtsp @ 0000006ca5999b80] max delay reached. need to consume packet
  274. [rtsp @ 0000006ca5999b80] RTP: missed 17335 packets
  275. [rtsp @ 0000006ca5999b80] max delay reached. need to consume packet
  276. [rtsp @ 0000006ca5999b80] RTP: missed 17336 packets
  277. frame=  786 fps= 20 q=2.0 size=   11786kB time=00:42:14.40 bitrate=  38.1kbits/s
  278. frame=  798 fps= 20 q=2.0 size=   11786kB time=00:42:55.29 bitrate=  37.5kbits/s
  279. frame=  798 fps= 20 q=2.0 Lsize=   12561kB time=00:43:31.22 bitrate=  39.4kbits/
  280. s speed=66.6x
  281. video:11642kB audio:40kB subtitle:0kB other streams:0kB global headers:0kB muxin
  282. g overhead: 7.527549%
  283. Exiting normally, received signal 2.
  284.  
  285. C:\ffmpeg\bin>
RAW Paste Data
We use cookies for various purposes including analytics. By continuing to use Pastebin, you agree to our use of cookies as described in the Cookies Policy. OK, I Understand
 
Top