SHARE
TWEET

Untitled

a guest Jan 10th, 2020 85 Never
Not a member of Pastebin yet? Sign Up, it unlocks many cool features!
  1. HandBrake 1.3.1 (2020010400)
  2. OS: Microsoft Windows NT 10.0.18363.0
  3. CPU: Intel(R) Core(TM) i5-7200U CPU @ 2.50GHz
  4. Ram: 16299 MB,
  5. GPU Information:
  6.   Intel(R) HD Graphics 620 - 26.20.100.7262
  7. Screen: 1366x768
  8. Temp Dir: C:\Users\mark_\AppData\Local\Temp\
  9. Install Dir: C:\HandBrake
  10. Data Dir: C:\Users\mark_\AppData\Roaming\HandBrake
  11.  
  12. -------------------------------------------
  13.  
  14. [20:04:30] Compile-time hardening features are enabled
  15. Cannot load nvEncodeAPI64.dll
  16. [20:04:37] hb_init: starting libhb thread
  17.  
  18.  # Starting Scan ...
  19.  
  20. [20:04:37] CPU: Intel(R) Core(TM) i5-7200U CPU @ 2.50GHz
  21. [20:04:37]  - Intel microarchitecture Kaby Lake
  22. [20:04:37]  - logical processor count: 4
  23. [20:04:37] Intel Quick Sync Video support: yes
  24. [20:04:37]  - Intel Media SDK hardware: API 1.25 (minimum: 1.3)
  25. [20:04:37]  - H.264 encoder: yes
  26. [20:04:37]     - preferred implementation: hardware (any) via D3D11
  27. [20:04:37]     - capabilities (hardware):  breftype vsinfo opt1 opt2+mbbrc+extbrc+trellis+ib_adapt+nmpslice
  28. [20:04:37]  - H.265 encoder: no
  29. [20:04:37] hb_scan: path=E:\Downloads\test.mkv, title_index=0
  30. udfread ERROR: ECMA 167 Volume Recognition failed
  31. src/libbluray/disc/disc.c:323: failed opening UDF image E:\Downloads\test.mkv
  32. src/libbluray/disc/disc.c:424: error opening file BDMV\index.bdmv
  33. src/libbluray/disc/disc.c:424: error opening file BDMV\BACKUP\index.bdmv
  34. src/libbluray/bluray.c:2585: nav_get_title_list(E:\Downloads\test.mkv\) failed
  35. [20:04:37] bd: not a bd - trying as a stream/file instead
  36. libdvdnav: Using dvdnav version 6.0.1
  37. libdvdread: Encrypted DVD support unavailable.
  38. libdvdread:DVDOpenFileUDF:UDFFindFile /VIDEO_TS/VIDEO_TS.IFO failed
  39. libdvdread:DVDOpenFileUDF:UDFFindFile /VIDEO_TS/VIDEO_TS.BUP failed
  40. libdvdread: Can't open file VIDEO_TS.IFO.
  41. libdvdnav: vm: failed to read VIDEO_TS.IFO
  42. [20:04:37] dvd: not a dvd - trying as a stream/file instead
  43. Input #0, matroska,webm, from 'E:\Downloads\test.mkv':
  44.   Metadata:
  45.     encoder         : libebml v1.3.9 + libmatroska v1.5.2
  46.     creation_time   : 2019-12-12T03:04:20.000000Z
  47.     Writing frontend: StaxRip v2.0.2.0, Encoded by JoyBell
  48.   Duration: 02:03:02.39, start: 0.000000, bitrate: 1796 kb/s
  49.     Chapter #0:0: start 0.000000, end 262.679000
  50.     Metadata:
  51.       title           : Chapter 01
  52.     Chapter #0:1: start 262.679000, end 528.695000
  53.     Metadata:
  54.       title           : Chapter 02
  55.     Chapter #0:2: start 528.695000, end 985.776000
  56.     Metadata:
  57.       title           : Chapter 03
  58.     Chapter #0:3: start 985.776000, end 1353.811000
  59.     Metadata:
  60.       title           : Chapter 04
  61.     Chapter #0:4: start 1353.811000, end 1808.515000
  62.     Metadata:
  63.       title           : Chapter 05
  64.     Chapter #0:5: start 1808.515000, end 2108.273000
  65.     Metadata:
  66.       title           : Chapter 06
  67.     Chapter #0:6: start 2108.273000, end 2433.348000
  68.     Metadata:
  69.       title           : Chapter 07
  70.     Chapter #0:7: start 2433.348000, end 2685.391000
  71.     Metadata:
  72.       title           : Chapter 08
  73.     Chapter #0:8: start 2685.391000, end 2936.809000
  74.     Metadata:
  75.       title           : Chapter 09
  76.     Chapter #0:9: start 2936.809000, end 3231.812000
  77.     Metadata:
  78.       title           : Chapter 10
  79.     Chapter #0:10: start 3231.812000, end 3403.775000
  80.     Metadata:
  81.       title           : Chapter 11
  82.     Chapter #0:11: start 3403.775000, end 3691.897000
  83.     Metadata:
  84.       title           : Chapter 12
  85.     Chapter #0:12: start 3691.897000, end 4043.873000
  86.     Metadata:
  87.       title           : Chapter 13
  88.     Chapter #0:13: start 4043.873000, end 4332.411000
  89.     Metadata:
  90.       title           : Chapter 14
  91.     Chapter #0:14: start 4332.411000, end 4619.114000
  92.     Metadata:
  93.       title           : Chapter 15
  94.     Chapter #0:15: start 4619.114000, end 4895.182000
  95.     Metadata:
  96.       title           : Chapter 16
  97.     Chapter #0:16: start 4895.182000, end 5082.661000
  98.     Metadata:
  99.       title           : Chapter 17
  100.     Chapter #0:17: start 5082.661000, end 5476.554000
  101.     Metadata:
  102.       title           : Chapter 18
  103.     Chapter #0:18: start 5476.554000, end 5787.031000
  104.     Metadata:
  105.       title           : Chapter 19
  106.     Chapter #0:19: start 5787.031000, end 6059.595000
  107.     Metadata:
  108.       title           : Chapter 20
  109.     Chapter #0:20: start 6059.595000, end 6386.589000
  110.     Metadata:
  111.       title           : Chapter 21
  112.     Chapter #0:21: start 6386.589000, end 6600.052000
  113.     Metadata:
  114.       title           : Chapter 22
  115.     Chapter #0:22: start 6600.052000, end 6797.791000
  116.     Metadata:
  117.       title           : Chapter 23
  118.     Chapter #0:23: start 6797.791000, end 7382.388000
  119.     Metadata:
  120.       title           : Chapter 24
  121.     Stream #0:0: Video: hevc (Main 10), yuv420p10le(tv, bt709/unknown/unknown), 1920x800, SAR 1:1 DAR 12:5, 23.98 fps, 23.98 tbr, 1k tbn, 23.98 tbc (default)
  122.     Metadata:
  123.       BPS-eng         : 1200613
  124.       DURATION-eng    : 02:03:02.375000000
  125.       NUMBER_OF_FRAMES-eng: 177000
  126.       NUMBER_OF_BYTES-eng: 1107922313
  127.       _STATISTICS_WRITING_APP-eng: mkvmerge v40.0.0 ('Old Town Road + Pony') 64-bit
  128.       _STATISTICS_WRITING_DATE_UTC-eng: 2019-12-12 03:04:20
  129.       _STATISTICS_TAGS-eng: BPS DURATION NUMBER_OF_FRAMES NUMBER_OF_BYTES
  130.     Stream #0:1(eng): Audio: aac (LC), 48000 Hz, 7.1, fltp
  131.     Metadata:
  132.       BPS-eng         : 400009
  133.       DURATION-eng    : 02:03:02.379000000
  134.       NUMBER_OF_FRAMES-eng: 346049
  135.       NUMBER_OF_BYTES-eng: 369127756
  136.       _STATISTICS_WRITING_APP-eng: mkvmerge v40.0.0 ('Old Town Road + Pony') 64-bit
  137.       _STATISTICS_WRITING_DATE_UTC-eng: 2019-12-12 03:04:20
  138.       _STATISTICS_TAGS-eng: BPS DURATION NUMBER_OF_FRAMES NUMBER_OF_BYTES
  139.     Stream #0:2(eng): Audio: aac (HE-AAC), 48000 Hz, stereo, fltp
  140.     Metadata:
  141.       title           : Commentary
  142.       BPS-eng         : 42424
  143.       DURATION-eng    : 02:02:57.194000000
  144.       NUMBER_OF_FRAMES-eng: 172903
  145.       NUMBER_OF_BYTES-eng: 39121342
  146.       _STATISTICS_WRITING_APP-eng: mkvmerge v40.0.0 ('Old Town Road + Pony') 64-bit
  147.       _STATISTICS_WRITING_DATE_UTC-eng: 2019-12-12 03:04:20
  148.       _STATISTICS_TAGS-eng: BPS DURATION NUMBER_OF_FRAMES NUMBER_OF_BYTES
  149.     Stream #0:3(eng): Subtitle: dvd_subtitle, 1920x1080
  150.     Metadata:
  151.       BPS-eng         : 9581
  152.       DURATION-eng    : 01:50:42.666000000
  153.       NUMBER_OF_FRAMES-eng: 1392
  154.       NUMBER_OF_BYTES-eng: 7955986
  155.       _STATISTICS_WRITING_APP-eng: mkvmerge v40.0.0 ('Old Town Road + Pony') 64-bit
  156.       _STATISTICS_WRITING_DATE_UTC-eng: 2019-12-12 03:04:20
  157.       _STATISTICS_TAGS-eng: BPS DURATION NUMBER_OF_FRAMES NUMBER_OF_BYTES
  158.     Stream #0:4(cze): Subtitle: dvd_subtitle, 1920x1080
  159.     Metadata:
  160.       BPS-eng         : 5979
  161.       DURATION-eng    : 02:02:01.596000000
  162.       NUMBER_OF_FRAMES-eng: 1077
  163.       NUMBER_OF_BYTES-eng: 5472460
  164.       _STATISTICS_WRITING_APP-eng: mkvmerge v40.0.0 ('Old Town Road + Pony') 64-bit
  165.       _STATISTICS_WRITING_DATE_UTC-eng: 2019-12-12 03:04:20
  166.       _STATISTICS_TAGS-eng: BPS DURATION NUMBER_OF_FRAMES NUMBER_OF_BYTES
  167.     Stream #0:5(dan): Subtitle: dvd_subtitle, 1920x1080
  168.     Metadata:
  169.       BPS-eng         : 6055
  170.       DURATION-eng    : 02:01:53.670000000
  171.       NUMBER_OF_FRAMES-eng: 853
  172.       NUMBER_OF_BYTES-eng: 5535637
  173.       _STATISTICS_WRITING_APP-eng: mkvmerge v40.0.0 ('Old Town Road + Pony') 64-bit
  174.       _STATISTICS_WRITING_DATE_UTC-eng: 2019-12-12 03:04:20
  175.       _STATISTICS_TAGS-eng: BPS DURATION NUMBER_OF_FRAMES NUMBER_OF_BYTES
  176.     Stream #0:6(dut): Subtitle: dvd_subtitle, 1920x1080
  177.     Metadata:
  178.       BPS-eng         : 5907
  179.       DURATION-eng    : 02:01:53.670000000
  180.       NUMBER_OF_FRAMES-eng: 938
  181.       NUMBER_OF_BYTES-eng: 5400432
  182.       _STATISTICS_WRITING_APP-eng: mkvmerge v40.0.0 ('Old Town Road + Pony') 64-bit
  183.       _STATISTICS_WRITING_DATE_UTC-eng: 2019-12-12 03:04:20
  184.       _STATISTICS_TAGS-eng: BPS DURATION NUMBER_OF_FRAMES NUMBER_OF_BYTES
  185.     Stream #0:7(fin): Subtitle: dvd_subtitle, 1920x1080
  186.     Metadata:
  187.       BPS-eng         : 6294
  188.       DURATION-eng    : 02:02:01.596000000
  189.       NUMBER_OF_FRAMES-eng: 1078
  190.       NUMBER_OF_BYTES-eng: 5761156
  191.       _STATISTICS_WRITING_APP-eng: mkvmerge v40.0.0 ('Old Town Road + Pony') 64-bit
  192.       _STATISTICS_WRITING_DATE_UTC-eng: 2019-12-12 03:04:20
  193.       _STATISTICS_TAGS-eng: BPS DURATION NUMBER_OF_FRAMES NUMBER_OF_BYTES
  194.     Stream #0:8(fre): Subtitle: dvd_subtitle, 1920x1080
  195.     Metadata:
  196.       BPS-eng         : 6265
  197.       DURATION-eng    : 02:02:00.265000000
  198.       NUMBER_OF_FRAMES-eng: 1132
  199.       NUMBER_OF_BYTES-eng: 5733310
  200.       _STATISTICS_WRITING_APP-eng: mkvmerge v40.0.0 ('Old Town Road + Pony') 64-bit
  201.       _STATISTICS_WRITING_DATE_UTC-eng: 2019-12-12 03:04:20
  202.       _STATISTICS_TAGS-eng: BPS DURATION NUMBER_OF_FRAMES NUMBER_OF_BYTES
  203.     Stream #0:9(ger): Subtitle: dvd_subtitle, 1920x1080
  204.     Metadata:
  205.       BPS-eng         : 7555
  206.       DURATION-eng    : 02:01:53.379000000
  207.       NUMBER_OF_FRAMES-eng: 1149
  208.       NUMBER_OF_BYTES-eng: 6907193
  209.       _STATISTICS_WRITING_APP-eng: mkvmerge v40.0.0 ('Old Town Road + Pony') 64-bit
  210.       _STATISTICS_WRITING_DATE_UTC-eng: 2019-12-12 03:04:20
  211.       _STATISTICS_TAGS-eng: BPS DURATION NUMBER_OF_FRAMES NUMBER_OF_BYTES
  212.     Stream #0:10(hun): Subtitle: dvd_subtitle, 1920x1080
  213.     Metadata:
  214.       BPS-eng         : 6892
  215.       DURATION-eng    : 02:02:01.596000000
  216.       NUMBER_OF_FRAMES-eng: 1074
  217.       NUMBER_OF_BYTES-eng: 6308188
  218.       _STATISTICS_WRITING_APP-eng: mkvmerge v40.0.0 ('Old Town Road + Pony') 64-bit
  219.       _STATISTICS_WRITING_DATE_UTC-eng: 2019-12-12 03:04:20
  220.       _STATISTICS_TAGS-eng: BPS DURATION NUMBER_OF_FRAMES NUMBER_OF_BYTES
  221.     Stream #0:11(ita): Subtitle: dvd_subtitle, 1920x1080
  222.     Metadata:
  223.       BPS-eng         : 6943
  224.       DURATION-eng    : 02:02:01.596000000
  225.       NUMBER_OF_FRAMES-eng: 1073
  226.       NUMBER_OF_BYTES-eng: 6354495
  227.       _STATISTICS_WRITING_APP-eng: mkvmerge v40.0.0 ('Old Town Road + Pony') 64-bit
  228.       _STATISTICS_WRITING_DATE_UTC-eng: 2019-12-12 03:04:20
  229.       _STATISTICS_TAGS-eng: BPS DURATION NUMBER_OF_FRAMES NUMBER_OF_BYTES
  230.     Stream #0:12(jpn): Subtitle: dvd_subtitle, 1920x1080
  231.     Metadata:
  232.       BPS-eng         : 4306
  233.       DURATION-eng    : 02:02:01.470000000
  234.       NUMBER_OF_FRAMES-eng: 1054
  235.       NUMBER_OF_BYTES-eng: 3940930
  236.       _STATISTICS_WRITING_APP-eng: mkvmerge v40.0.0 ('Old Town Road + Pony') 64-bit
  237.       _STATISTICS_WRITING_DATE_UTC-eng: 2019-12-12 03:04:20
  238.       _STATISTICS_TAGS-eng: BPS DURATION NUMBER_OF_FRAMES NUMBER_OF_BYTES
  239.     Stream #0:13(kor): Subtitle: dvd_subtitle, 1920x1080
  240.     Metadata:
  241.       BPS-eng         : 4725
  242.       DURATION-eng    : 02:01:53.670000000
  243.       NUMBER_OF_FRAMES-eng: 1076
  244.       NUMBER_OF_BYTES-eng: 4320293
  245.       _STATISTICS_WRITING_APP-eng: mkvmerge v40.0.0 ('Old Town Road + Pony') 64-bit
  246.       _STATISTICS_WRITING_DATE_UTC-eng: 2019-12-12 03:04:20
  247.       _STATISTICS_TAGS-eng: BPS DURATION NUMBER_OF_FRAMES NUMBER_OF_BYTES
  248.     Stream #0:14(nob): Subtitle: dvd_subtitle, 1920x1080
  249.     Metadata:
  250.       BPS-eng         : 6736
  251.       DURATION-eng    : 02:02:01.596000000
  252.       NUMBER_OF_FRAMES-eng: 1077
  253.       NUMBER_OF_BYTES-eng: 6164915
  254.       _STATISTICS_WRITING_APP-eng: mkvmerge v40.0.0 ('Old Town Road + Pony') 64-bit
  255.       _STATISTICS_WRITING_DATE_UTC-eng: 2019-12-12 03:04:20
  256.       _STATISTICS_TAGS-eng: BPS DURATION NUMBER_OF_FRAMES NUMBER_OF_BYTES
  257.     Stream #0:15(pol): Subtitle: dvd_subtitle, 1920x1080
  258.     Metadata:
  259.       BPS-eng         : 6222
  260.       DURATION-eng    : 02:02:01.596000000
  261.       NUMBER_OF_FRAMES-eng: 1042
  262.       NUMBER_OF_BYTES-eng: 5694589
  263.       _STATISTICS_WRITING_APP-eng: mkvmerge v40.0.0 ('Old Town Road + Pony') 64-bit
  264.       _STATISTICS_WRITING_DATE_UTC-eng: 2019-12-12 03:04:20
  265.       _STATISTICS_TAGS-eng: BPS DURATION NUMBER_OF_FRAMES NUMBER_OF_BYTES
  266.     Stream #0:16(spa): Subtitle: dvd_subtitle, 1920x1080
  267.     Metadata:
  268.       BPS-eng         : 6676
  269.       DURATION-eng    : 02:01:53.712000000
  270.       NUMBER_OF_FRAMES-eng: 1093
  271.       NUMBER_OF_BYTES-eng: 6103719
  272.       _STATISTICS_WRITING_APP-eng: mkvmerge v40.0.0 ('Old Town Road + Pony') 64-bit
  273.       _STATISTICS_WRITING_DATE_UTC-eng: 2019-12-12 03:04:20
  274.       _STATISTICS_TAGS-eng: BPS DURATION NUMBER_OF_FRAMES NUMBER_OF_BYTES
  275.     Stream #0:17(spa): Subtitle: dvd_subtitle, 1920x1080
  276.     Metadata:
  277.       BPS-eng         : 6548
  278.       DURATION-eng    : 02:02:02.222000000
  279.       NUMBER_OF_FRAMES-eng: 1053
  280.       NUMBER_OF_BYTES-eng: 5993643
  281.       _STATISTICS_WRITING_APP-eng: mkvmerge v40.0.0 ('Old Town Road + Pony') 64-bit
  282.       _STATISTICS_WRITING_DATE_UTC-eng: 2019-12-12 03:04:20
  283.       _STATISTICS_TAGS-eng: BPS DURATION NUMBER_OF_FRAMES NUMBER_OF_BYTES
  284.     Stream #0:18(swe): Subtitle: dvd_subtitle, 1920x1080
  285.     Metadata:
  286.       BPS-eng         : 6653
  287.       DURATION-eng    : 02:01:53.670000000
  288.       NUMBER_OF_FRAMES-eng: 1073
  289.       NUMBER_OF_BYTES-eng: 6083071
  290.       _STATISTICS_WRITING_APP-eng: mkvmerge v40.0.0 ('Old Town Road + Pony') 64-bit
  291.       _STATISTICS_WRITING_DATE_UTC-eng: 2019-12-12 03:04:20
  292.       _STATISTICS_TAGS-eng: BPS DURATION NUMBER_OF_FRAMES NUMBER_OF_BYTES
  293.     Stream #0:19(eng): Subtitle: dvd_subtitle, 1920x1080
  294.     Metadata:
  295.       BPS-eng         : 18777
  296.       DURATION-eng    : 01:53:10.272000000
  297.       NUMBER_OF_FRAMES-eng: 1955
  298.       NUMBER_OF_BYTES-eng: 15937721
  299.       _STATISTICS_WRITING_APP-eng: mkvmerge v40.0.0 ('Old Town Road + Pony') 64-bit
  300.       _STATISTICS_WRITING_DATE_UTC-eng: 2019-12-12 03:04:20
  301.       _STATISTICS_TAGS-eng: BPS DURATION NUMBER_OF_FRAMES NUMBER_OF_BYTES
  302.     Stream #0:20(fre): Subtitle: dvd_subtitle, 1920x1080
  303.     Metadata:
  304.       BPS-eng         : 15622
  305.       DURATION-eng    : 02:02:49.727000000
  306.       NUMBER_OF_FRAMES-eng: 1946
  307.       NUMBER_OF_BYTES-eng: 14392026
  308.       _STATISTICS_WRITING_APP-eng: mkvmerge v40.0.0 ('Old Town Road + Pony') 64-bit
  309.       _STATISTICS_WRITING_DATE_UTC-eng: 2019-12-12 03:04:20
  310.       _STATISTICS_TAGS-eng: BPS DURATION NUMBER_OF_FRAMES NUMBER_OF_BYTES
  311.     Stream #0:21(ger): Subtitle: dvd_subtitle, 1920x1080
  312.     Metadata:
  313.       BPS-eng         : 18224
  314.       DURATION-eng    : 02:02:49.727000000
  315.       NUMBER_OF_FRAMES-eng: 1946
  316.       NUMBER_OF_BYTES-eng: 16788262
  317.       _STATISTICS_WRITING_APP-eng: mkvmerge v40.0.0 ('Old Town Road + Pony') 64-bit
  318.       _STATISTICS_WRITING_DATE_UTC-eng: 2019-12-12 03:04:20
  319.       _STATISTICS_TAGS-eng: BPS DURATION NUMBER_OF_FRAMES NUMBER_OF_BYTES
  320.     Stream #0:22(ita): Subtitle: dvd_subtitle, 1920x1080
  321.     Metadata:
  322.       BPS-eng         : 16819
  323.       DURATION-eng    : 02:02:49.727000000
  324.       NUMBER_OF_FRAMES-eng: 1951
  325.       NUMBER_OF_BYTES-eng: 15494690
  326.       _STATISTICS_WRITING_APP-eng: mkvmerge v40.0.0 ('Old Town Road + Pony') 64-bit
  327.       _STATISTICS_WRITING_DATE_UTC-eng: 2019-12-12 03:04:20
  328.       _STATISTICS_TAGS-eng: BPS DURATION NUMBER_OF_FRAMES NUMBER_OF_BYTES
  329.     Stream #0:23(jpn): Subtitle: dvd_subtitle, 1920x1080
  330.     Metadata:
  331.       BPS-eng         : 9754
  332.       DURATION-eng    : 02:02:49.977000000
  333.       NUMBER_OF_FRAMES-eng: 1448
  334.       NUMBER_OF_BYTES-eng: 8986198
  335.       _STATISTICS_WRITING_APP-eng: mkvmerge v40.0.0 ('Old Town Road + Pony') 64-bit
  336.       _STATISTICS_WRITING_DATE_UTC-eng: 2019-12-12 03:04:20
  337.       _STATISTICS_TAGS-eng: BPS DURATION NUMBER_OF_FRAMES NUMBER_OF_BYTES
  338.     Stream #0:24(kor): Subtitle: dvd_subtitle, 1920x1080
  339.     Metadata:
  340.       BPS-eng         : 11995
  341.       DURATION-eng    : 02:02:49.727000000
  342.       NUMBER_OF_FRAMES-eng: 1951
  343.       NUMBER_OF_BYTES-eng: 11050202
  344.       _STATISTICS_WRITING_APP-eng: mkvmerge v40.0.0 ('Old Town Road + Pony') 64-bit
  345.       _STATISTICS_WRITING_DATE_UTC-eng: 2019-12-12 03:04:20
  346.       _STATISTICS_TAGS-eng: BPS DURATION NUMBER_OF_FRAMES NUMBER_OF_BYTES
  347.     Stream #0:25(spa): Subtitle: dvd_subtitle, 1920x1080
  348.     Metadata:
  349.       BPS-eng         : 16097
  350.       DURATION-eng    : 02:02:49.727000000
  351.       NUMBER_OF_FRAMES-eng: 1946
  352.       NUMBER_OF_BYTES-eng: 14828913
  353.       _STATISTICS_WRITING_APP-eng: mkvmerge v40.0.0 ('Old Town Road + Pony') 64-bit
  354.       _STATISTICS_WRITING_DATE_UTC-eng: 2019-12-12 03:04:20
  355.       _STATISTICS_TAGS-eng: BPS DURATION NUMBER_OF_FRAMES NUMBER_OF_BYTES
  356.     Stream #0:26(spa): Subtitle: dvd_subtitle, 1920x1080
  357.     Metadata:
  358.       BPS-eng         : 16499
  359.       DURATION-eng    : 02:02:49.727000000
  360.       NUMBER_OF_FRAMES-eng: 1946
  361.       NUMBER_OF_BYTES-eng: 15199797
  362.       _STATISTICS_WRITING_APP-eng: mkvmerge v40.0.0 ('Old Town Road + Pony') 64-bit
  363.       _STATISTICS_WRITING_DATE_UTC-eng: 2019-12-12 03:04:20
  364.       _STATISTICS_TAGS-eng: BPS DURATION NUMBER_OF_FRAMES NUMBER_OF_BYTES
  365.     Stream #0:27(ara): Subtitle: subrip
  366.     Metadata:
  367.       BPS-eng         : 69
  368.       DURATION-eng    : 01:54:17.865000000
  369.       NUMBER_OF_FRAMES-eng: 1074
  370.       NUMBER_OF_BYTES-eng: 59232
  371.       _STATISTICS_WRITING_APP-eng: mkvmerge v40.0.0 ('Old Town Road + Pony') 64-bit
  372.       _STATISTICS_WRITING_DATE_UTC-eng: 2019-12-12 03:04:20
  373.       _STATISTICS_TAGS-eng: BPS DURATION NUMBER_OF_FRAMES NUMBER_OF_BYTES
  374.     Stream #0:28(chi): Subtitle: subrip
  375.     Metadata:
  376.       BPS-eng         : 46
  377.       DURATION-eng    : 01:52:23.302000000
  378.       NUMBER_OF_FRAMES-eng: 1260
  379.       NUMBER_OF_BYTES-eng: 39165
  380.       _STATISTICS_WRITING_APP-eng: mkvmerge v40.0.0 ('Old Town Road + Pony') 64-bit
  381.       _STATISTICS_WRITING_DATE_UTC-eng: 2019-12-12 03:04:20
  382.       _STATISTICS_TAGS-eng: BPS DURATION NUMBER_OF_FRAMES NUMBER_OF_BYTES
  383.     Stream #0:29(dan): Subtitle: subrip
  384.     Metadata:
  385.       BPS-eng         : 38
  386.       DURATION-eng    : 02:01:53.689000000
  387.       NUMBER_OF_FRAMES-eng: 854
  388.       NUMBER_OF_BYTES-eng: 34904
  389.       _STATISTICS_WRITING_APP-eng: mkvmerge v40.0.0 ('Old Town Road + Pony') 64-bit
  390.       _STATISTICS_WRITING_DATE_UTC-eng: 2019-12-12 03:04:20
  391.       _STATISTICS_TAGS-eng: BPS DURATION NUMBER_OF_FRAMES NUMBER_OF_BYTES
  392.     Stream #0:30(dut): Subtitle: subrip
  393.     Metadata:
  394.       BPS-eng         : 36
  395.       DURATION-eng    : 01:52:22.557000000
  396.       NUMBER_OF_FRAMES-eng: 937
  397.       NUMBER_OF_BYTES-eng: 30711
  398.       _STATISTICS_WRITING_APP-eng: mkvmerge v40.0.0 ('Old Town Road + Pony') 64-bit
  399.       _STATISTICS_WRITING_DATE_UTC-eng: 2019-12-12 03:04:20
  400.       _STATISTICS_TAGS-eng: BPS DURATION NUMBER_OF_FRAMES NUMBER_OF_BYTES
  401.     Stream #0:31(per): Subtitle: subrip
  402.     Metadata:
  403.       BPS-eng         : 66
  404.       DURATION-eng    : 02:02:52.615000000
  405.       NUMBER_OF_FRAMES-eng: 1271
  406.       NUMBER_OF_BYTES-eng: 61654
  407.       _STATISTICS_WRITING_APP-eng: mkvmerge v40.0.0 ('Old Town Road + Pony') 64-bit
  408.       _STATISTICS_WRITING_DATE_UTC-eng: 2019-12-12 03:04:20
  409.       _STATISTICS_TAGS-eng: BPS DURATION NUMBER_OF_FRAMES NUMBER_OF_BYTES
  410.     Stream #0:32(gre): Subtitle: subrip
  411.     Metadata:
  412.       BPS-eng         : 78
  413.       DURATION-eng    : 02:02:55.423000000
  414.       NUMBER_OF_FRAMES-eng: 1122
  415.       NUMBER_OF_BYTES-eng: 72130
  416.       _STATISTICS_WRITING_APP-eng: mkvmerge v40.0.0 ('Old Town Road + Pony') 64-bit
  417.       _STATISTICS_WRITING_DATE_UTC-eng: 2019-12-12 03:04:20
  418.       _STATISTICS_TAGS-eng: BPS DURATION NUMBER_OF_FRAMES NUMBER_OF_BYTES
  419.     Stream #0:33(heb): Subtitle: subrip
  420.     Metadata:
  421.       BPS-eng         : 55
  422.       DURATION-eng    : 02:02:24.375000000
  423.       NUMBER_OF_FRAMES-eng: 1084
  424.       NUMBER_OF_BYTES-eng: 51270
  425.       _STATISTICS_WRITING_APP-eng: mkvmerge v40.0.0 ('Old Town Road + Pony') 64-bit
  426.       _STATISTICS_WRITING_DATE_UTC-eng: 2019-12-12 03:04:20
  427.       _STATISTICS_TAGS-eng: BPS DURATION NUMBER_OF_FRAMES NUMBER_OF_BYTES
  428.     Stream #0:34(hin): Subtitle: subrip
  429.     Metadata:
  430.       BPS-eng         : 109
  431.       DURATION-eng    : 02:02:20.747000000
  432.       NUMBER_OF_FRAMES-eng: 1083
  433.       NUMBER_OF_BYTES-eng: 100282
  434.       _STATISTICS_WRITING_APP-eng: mkvmerge v40.0.0 ('Old Town Road + Pony') 64-bit
  435.       _STATISTICS_WRITING_DATE_UTC-eng: 2019-12-12 03:04:20
  436.       _STATISTICS_TAGS-eng: BPS DURATION NUMBER_OF_FRAMES NUMBER_OF_BYTES
  437.     Stream #0:35(rus): Subtitle: subrip
  438.     Metadata:
  439.       BPS-eng         : 64
  440.       DURATION-eng    : 02:02:20.601000000
  441.       NUMBER_OF_FRAMES-eng: 1077
  442.       NUMBER_OF_BYTES-eng: 59212
  443.       _STATISTICS_WRITING_APP-eng: mkvmerge v40.0.0 ('Old Town Road + Pony') 64-bit
  444.       _STATISTICS_WRITING_DATE_UTC-eng: 2019-12-12 03:04:20
  445.       _STATISTICS_TAGS-eng: BPS DURATION NUMBER_OF_FRAMES NUMBER_OF_BYTES
  446.     Stream #0:36(tha): Subtitle: subrip
  447.     Metadata:
  448.       BPS-eng         : 80
  449.       DURATION-eng    : 02:02:24.347000000
  450.       NUMBER_OF_FRAMES-eng: 1084
  451.       NUMBER_OF_BYTES-eng: 74147
  452.       _STATISTICS_WRITING_APP-eng: mkvmerge v40.0.0 ('Old Town Road + Pony') 64-bit
  453.       _STATISTICS_WRITING_DATE_UTC-eng: 2019-12-12 03:04:20
  454.       _STATISTICS_TAGS-eng: BPS DURATION NUMBER_OF_FRAMES NUMBER_OF_BYTES
  455.     Stream #0:37(vie): Subtitle: subrip
  456.     Metadata:
  457.       BPS-eng         : 55
  458.       DURATION-eng    : 02:02:22.699000000
  459.       NUMBER_OF_FRAMES-eng: 1082
  460.       NUMBER_OF_BYTES-eng: 50837
  461.       _STATISTICS_WRITING_APP-eng: mkvmerge v40.0.0 ('Old Town Road + Pony') 64-bit
  462.       _STATISTICS_WRITING_DATE_UTC-eng: 2019-12-12 03:04:20
  463.       _STATISTICS_TAGS-eng: BPS DURATION NUMBER_OF_FRAMES NUMBER_OF_BYTES
  464.     Stream #0:38: Video: mjpeg (Baseline), yuvj420p(pc, bt470bg/unknown/unknown), 154x231 [SAR 96:96 DAR 2:3], 90k tbr, 90k tbn, 90k tbc (attached pic)
  465.     Metadata:
  466.       filename        : cover.jpg
  467.       mimetype        : image/jpeg
  468. [20:04:37] scan: decoding previews for title 1
  469. [20:04:37] scan: audio 0x1: aac, rate=48000Hz, bitrate=1 English (AAC LC) (7.1 ch)
  470. [20:04:37] scan: audio 0x2: aac, rate=48000Hz, bitrate=1 English (HE-AAC) (2.0 ch)
  471. [20:04:38] scan: 10 previews, 1920x800, 23.976 fps, autocrop = 0/0/0/0, aspect 2.40:1, PAR 1:1
  472. [20:04:38] scan: supported video decoders: avcodec qsv
  473. [20:04:38] libhb: scan thread found 1 valid title(s)
  474.  
  475.  # Processing Scan Information ...
  476.  
  477.  
  478.  # Scan Finished ...
RAW Paste Data
We use cookies for various purposes including analytics. By continuing to use Pastebin, you agree to our use of cookies as described in the Cookies Policy. OK, I Understand
Top