SHARE
TWEET

Pink.Floyd.Live.at.Pompeii.1972.1080p.BluRay.REMUX.AVC.DTS-HD.MA.5.1-ruT.mkv

iMN0 Aug 3rd, 2018 85 Never
Not a member of Pastebin yet? Sign Up, it unlocks many cool features!
  1. General
  2. Unique ID                                : 314294693279838348591730043060906485798 (0xEC72F4C3F346A2CA3895EA7EF36DE826)
  3. Complete name                            : Pink.Floyd.Live.at.Pompeii.1972.1080p.BluRay.REMUX.AVC.DTS-HD.MA.5.1-ruT.mkv
  4. Format                                   : Matroska
  5. Format version                           : Version 2
  6. File size                                : 11.5 GiB
  7. Duration                                 : 1h 0mn
  8. Overall bit rate mode                    : Variable
  9. Overall bit rate                         : 27.2 Mbps
  10. Movie name                               : OBFUSC/ATION 1972
  11. Encoded date                             : UTC 2016-12-04 13:48:42
  12. Writing application                      : MakeMKV v1.10.2 win(x86-release)
  13. Writing library                          : libmakemkv v1.10.2 (1.3.3/1.4.4) win(x86-release)
  14. Original source medium                   : Blu-ray
  15.  
  16. Video
  17. ID                                       : 1
  18. ID in the original source medium         : 4113 (0x1011)
  19. Format                                   : AVC
  20. Format/Info                              : Advanced Video Codec
  21. Format profile                           : High@L4.1
  22. Format settings, CABAC                   : Yes
  23. Format settings, ReFrames                : 4 frames
  24. Codec ID                                 : V_MPEG4/ISO/AVC
  25. Duration                                 : 59mn 50s
  26. Bit rate mode                            : Variable
  27. Bit rate                                 : 14.9 Mbps
  28. Maximum bit rate                         : 20.0 Mbps
  29. Width                                    : 1 920 pixels
  30. Height                                   : 1 080 pixels
  31. Display aspect ratio                     : 16:9
  32. Frame rate mode                          : Constant
  33. Frame rate                               : 23.976 (24000/1001) fps
  34. Standard                                 : NTSC
  35. Color space                              : YUV
  36. Chroma subsampling                       : 4:2:0
  37. Bit depth                                : 8 bits
  38. Scan type                                : Progressive
  39. Bits/(Pixel*Frame)                       : 0.300
  40. Stream size                              : 6.23 GiB (54%)
  41. Language                                 : English
  42. Default                                  : No
  43. Forced                                   : No
  44. Color range                              : Limited
  45. Color primaries                          : BT.709
  46. Transfer characteristics                 : BT.709
  47. Matrix coefficients                      : BT.709
  48.  
  49. Audio #1
  50. ID                                       : 2
  51. ID in the original source medium         : 4352 (0x1100)
  52. Format                                   : DTS
  53. Format/Info                              : Digital Theater Systems
  54. Format profile                           : MA / Core
  55. Mode                                     : 16
  56. Format settings, Endianness              : Big
  57. Codec ID                                 : A_DTS
  58. Duration                                 : 59mn 50s
  59. Bit rate mode                            : Variable / Constant
  60. Bit rate                                 : 6 509 Kbps / 1 509 Kbps
  61. Channel(s)                               : 6 channels
  62. Channel positions                        : Front: L C R, Side: L R, LFE
  63. Sampling rate                            : 96.0 KHz / 48.0 KHz
  64. Frame rate                               : 93.750 fps (512 spf)
  65. Bit depth                                : 24 bits
  66. Compression mode                         : Lossless / Lossy
  67. Stream size                              : 2.72 GiB (24%)
  68. Title                                    : Surround 5.1
  69. Language                                 : English
  70. Default                                  : Yes
  71. Forced                                   : No
  72.  
  73. Audio #2
  74. ID                                       : 3
  75. ID in the original source medium         : 4352 (0x1100)
  76. Format                                   : DTS
  77. Format/Info                              : Digital Theater Systems
  78. Mode                                     : 16
  79. Format settings, Endianness              : Big
  80. Codec ID                                 : A_DTS
  81. Duration                                 : 59mn 50s
  82. Bit rate mode                            : Constant
  83. Bit rate                                 : 1 509 Kbps
  84. Channel(s)                               : 6 channels
  85. Channel positions                        : Front: L C R, Side: L R, LFE
  86. Sampling rate                            : 48.0 KHz
  87. Frame rate                               : 93.750 fps (512 spf)
  88. Bit depth                                : 24 bits
  89. Compression mode                         : Lossy
  90. Stream size                              : 646 MiB (5%)
  91. Title                                    : Surround 5.1
  92. Language                                 : English
  93. Default                                  : No
  94. Forced                                   : No
  95.  
  96. Audio #3
  97. ID                                       : 4
  98. ID in the original source medium         : 4353 (0x1101)
  99. Format                                   : PCM
  100. Codec ID                                 : A_PCM/INT/LIT
  101. Duration                                 : 1h 0mn
  102. Bit rate mode                            : Constant
  103. Bit rate                                 : 4 608 Kbps
  104. Channel(s)                               : 2 channels
  105. Sampling rate                            : 96.0 KHz
  106. Frame rate                               : 30.000 fps (3200 spf)
  107. Bit depth                                : 24 bits
  108. Stream size                              : 1.95 GiB (17%)
  109. Title                                    : Stereo
  110. Language                                 : English
  111. Default                                  : No
  112. Forced                                   : No
  113.  
  114. Menu
  115. 00:00:00.000                             : en:Chapter 01
  116. 00:07:03.423                             : en:Chapter 02
  117. 00:17:13.615                             : en:Chapter 03
  118. 00:23:13.308                             : en:Chapter 04
  119. 00:33:36.556                             : en:Chapter 05
RAW Paste Data
We use cookies for various purposes including analytics. By continuing to use Pastebin, you agree to our use of cookies as described in the Cookies Policy. OK, I Understand
 
Top