Self-Perfection

ffprobe /mnt/Jolla/JLTM_-_The_blue_doll.mp3 (desktop)

May 18th, 2015
268
Never
Not a member of Pastebin yet? Sign Up, it unlocks many cool features!
  1. $ ffprobe /mnt/Jolla/JLTM_-_The_blue_doll.mp3
  2. ffprobe version 2.4.2 Copyright (c) 2007-2014 the FFmpeg developers
  3. built on Oct 5 2014 07:39:11 with gcc 4.9.1 (GCC) 20140903 (prerelease)
  4. configuration: --prefix=/usr --disable-debug --disable-static --enable-avisynth --enable-avresample --enable-fontconfig --enable-gnutls --enable-gpl --enable-libass --enable-libbluray --enable-libfreetype --enable-libfribidi --enable-libgsm --enable-libmodplug --enable-libmp3lame --enable-libopencore_amrnb --enable-libopencore_amrwb --enable-libopenjpeg --enable-libopus --enable-libpulse --enable-librtmp --enable-libschroedinger --enable-libspeex --enable-libtheora --enable-libv4l2 --enable-libvorbis --enable-libvpx --enable-libx264 --enable-libx265 --enable-libxvid --enable-runtime-cpudetect --enable-shared --enable-swresample --enable-vdpau --enable-version3 --enable-x11grab
  5. libavutil 54. 7.100 / 54. 7.100
  6. libavcodec 56. 1.100 / 56. 1.100
  7. libavformat 56. 4.101 / 56. 4.101
  8. libavdevice 56. 0.100 / 56. 0.100
  9. libavfilter 5. 1.100 / 5. 1.100
  10. libavresample 2. 1. 0 / 2. 1. 0
  11. libswscale 3. 0.100 / 3. 0.100
  12. libswresample 1. 1.100 / 1. 1.100
  13. libpostproc 53. 0.100 / 53. 0.100
  14. [mjpeg @ 0x1f27720] overread 8
  15. [mjpeg @ 0x1f27720] EOI missing, emulating
  16. Input #0, mp3, from '/mnt/Jolla/JLTM_-_The_blue_doll.mp3':
  17. Metadata:
  18. album : A Soundtrack With No Film
  19. composer : JLTM
  20. genre : guitar
  21. encoded_by : Jamendo:http://www.jamendo.com| LAME
  22. title : The blue doll
  23. artist : JLTM
  24. track : 7
  25. date : 2015
  26. Duration: 00:04:21.77, start: 0.025056, bitrate: 200 kb/s
  27. Stream #0:0: Audio: mp3, 44100 Hz, stereo, s16p, 198 kb/s
  28. Metadata:
  29. encoder : LAME3.98r
  30. Stream #0:1: Video: mjpeg, yuvj420p(pc, bt470bg), 400x400 [SAR 72:72 DAR 1:1], 90k tbr, 90k tbn, 90k tbc
  31. Metadata:
  32. title : Cover Image
  33. comment : Cover (front)
RAW Paste Data

Adblocker detected! Please consider disabling it...

We've detected AdBlock Plus or some other adblocking software preventing Pastebin.com from fully loading.

We don't have any obnoxious sound, or popup ads, we actively block these annoying types of ads!

Please add Pastebin.com to your ad blocker whitelist or disable your adblocking software.

×