Guest User

Beyond.White.Space.2018.1080p.BluRay.x264-GETiT

a guest
May 23rd, 2019
130
Never
Not a member of Pastebin yet? Sign Up, it unlocks many cool features!
  1. General
  2. Complete name                            : Beyond.White.Space.2018.1080p.BluRay.x264-GETiT.mkv
  3. Format                                   : Matroska
  4. Format version                           : Version 4
  5. File size                                : 6.55 GiB
  6. Duration                                 : 1 h 33 min
  7. Overall bit rate                         : 10.0 Mb/s
  8. Encoded date                             : UTC 2019-05-23 17:39:27
  9. Writing application                      : mkvmerge v7.9.0 ('Birds') 64bit
  10. Writing library                          : libebml v1.3.1 + libmatroska v1.4.2
  11.  
  12. Video
  13. ID                                       : 1
  14. Format                                   : AVC
  15. Format/Info                              : Advanced Video Codec
  16. Format profile                           : High@L4.1
  17. Format settings                          : CABAC / 5 Ref Frames
  18. Format settings, CABAC                   : Yes
  19. Format settings, Reference frames        : 5 frames
  20. Codec ID                                 : V_MPEG4/ISO/AVC
  21. Duration                                 : 1 h 33 min
  22. Bit rate                                 : 8 505 kb/s
  23. Width                                    : 1 920 pixels
  24. Height                                   : 808 pixels
  25. Display aspect ratio                     : 2.40:1
  26. Frame rate mode                          : Constant
  27. Frame rate                               : 23.976 (24000/1001) FPS
  28. Color space                              : YUV
  29. Chroma subsampling                       : 4:2:0
  30. Bit depth                                : 8 bits
  31. Scan type                                : Progressive
  32. Bits/(Pixel*Frame)                       : 0.229
  33. Stream size                              : 5.56 GiB (85%)
  34. Writing library                          : x264 core 157 r2969 d4099dd
  35. Encoding settings                        : cabac=1 / ref=5 / deblock=1:0:0 / analyse=0x3:0x133 / me=umh / subme=7 / psy=1 / psy_rd=1.00:0.00 / mixed_ref=1 / me_range=16 / chroma_me=1 / trellis=2 / 8x8dct=1 / cqm=0 / deadzone=21,11 / fast_pskip=0 / chroma_qp_offset=-2 / threads=18 / lookahead_threads=3 / sliced_threads=0 / nr=0 / decimate=1 / interlaced=0 / bluray_compat=0 / constrained_intra=0 / bframes=3 / b_pyramid=2 / b_adapt=1 / b_bias=0 / direct=3 / weightb=1 / open_gop=0 / weightp=2 / keyint=250 / keyint_min=23 / scenecut=40 / intra_refresh=0 / rc_lookahead=50 / rc=2pass / mbtree=1 / bitrate=8505 / ratetol=1.0 / qcomp=0.60 / qpmin=0 / qpmax=69 / qpstep=4 / cplxblur=20.0 / qblur=0.5 / ip_ratio=1.40 / aq=1:1.00
  36. Language                                 : English
  37. Default                                  : Yes
  38. Forced                                   : No
  39.  
  40. Audio
  41. ID                                       : 2
  42. Format                                   : DTS
  43. Format/Info                              : Digital Theater Systems
  44. Codec ID                                 : A_DTS
  45. Duration                                 : 1 h 33 min
  46. Bit rate mode                            : Constant
  47. Bit rate                                 : 1 509 kb/s
  48. Channel(s)                               : 6 channels
  49. Channel layout                           : C L R Ls Rs LFE
  50. Sampling rate                            : 48.0 kHz
  51. Frame rate                               : 93.750 FPS (512 SPF)
  52. Bit depth                                : 24 bits
  53. Compression mode                         : Lossy
  54. Stream size                              : 1 010 MiB (15%)
  55. Title                                    : dts
  56. Language                                 : English
  57. Default                                  : Yes
  58. Forced                                   : No
  59.  
  60. Menu
  61. 00:00:00.000                             : en:00:00:00.000
  62. 00:08:07.654                             : en:00:08:07.654
  63. 00:14:58.064                             : en:00:14:58.064
  64. 00:23:56.101                             : en:00:23:56.101
  65. 00:32:57.893                             : en:00:32:57.893
  66. 00:40:24.172                             : en:00:40:24.172
  67. 00:49:52.907                             : en:00:49:52.907
  68. 00:58:11.279                             : en:00:58:11.279
  69. 01:05:05.110                             : en:01:05:05.110
  70. 01:11:05.261                             : en:01:11:05.261
  71. 01:19:04.865                             : en:01:19:04.865
  72. 01:25:12.524                             : en:01:25:12.524
  73. 01:33:32.607                             : en:01:33:32.607
RAW Paste Data