Advertisement
Guest User

Untitled

a guest
Jan 12th, 2022
35
Never
Not a member of Pastebin yet? Sign Up, it unlocks many cool features!
  1. General
  2. Unique ID : 39461709983224776074665627674287486986 (0x1DB00C842499CC37BCA52892067B380A)
  3. Complete name : E:\Video\Pirates.of.the.Caribbean.On.Stranger.Tides.2011.BDREMUX.2160p.HDR.seleZen.mkv
  4. Format : Matroska
  5. Format version : Version 4
  6. File size : 49.6 GiB
  7. Duration : 2 h 16 min
  8. Overall bit rate mode : Variable
  9. Overall bit rate : 52.1 Mb/s
  10. Movie name : Pirates of the Caribbean: On Stranger Tides 2011 from seleZen
  11. Encoded date : UTC 2022-01-12 08:22:54
  12. Writing application : mkvmerge v59.0.0 ('Shining Star') 64-bit
  13. Writing library : libebml v1.4.2 + libmatroska v1.6.4
  14.  
  15. Video
  16. ID : 1
  17. Format : HEVC
  18. Format/Info : High Efficiency Video Coding
  19. Format profile : Main 10@L5.1@High
  20. HDR format : SMPTE ST 2086, HDR10 compatible
  21. Codec ID : V_MPEGH/ISO/HEVC
  22. Duration : 2 h 16 min
  23. Bit rate : 46.4 Mb/s
  24. Width : 3 840 pixels
  25. Height : 2 160 pixels
  26. Display aspect ratio : 16:9
  27. Frame rate mode : Constant
  28. Frame rate : 23.976 (24000/1001) FPS
  29. Color space : YUV
  30. Chroma subsampling : 4:2:0 (Type 2)
  31. Bit depth : 10 bits
  32. Bits/(Pixel*Frame) : 0.233
  33. Stream size : 44.2 GiB (89%)
  34. Language : English
  35. Default : Yes
  36. Forced : No
  37. Color range : Limited
  38. Color primaries : BT.2020
  39. Transfer characteristics : PQ
  40. Matrix coefficients : BT.2020 non-constant
  41. Mastering display color pri : Display P3
  42. Mastering display luminance : min: 0.0050 cd/m2, max: 4000 cd/m2
  43.  
  44. Audio #1
  45. ID : 2
  46. Format : AC-3
  47. Format/Info : Audio Coding 3
  48. Commercial name : Dolby Digital
  49. Codec ID : A_AC3
  50. Duration : 2 h 16 min
  51. Bit rate mode : Constant
  52. Bit rate : 640 kb/s
  53. Channel(s) : 6 channels
  54. Channel layout : L R C LFE Ls Rs
  55. Sampling rate : 48.0 kHz
  56. Frame rate : 31.250 FPS (1536 SPF)
  57. Compression mode : Lossy
  58. Stream size : 624 MiB (1%)
  59. Title : Dub
  60. Language : Russian
  61. Service kind : Complete Main
  62. Default : Yes
  63. Forced : Yes
  64.  
  65. Audio #2
  66. ID : 3
  67. Format : MLP FBA 16-ch
  68. Format/Info : Meridian Lossless Packing FBA with 16-channel presentation
  69. Commercial name : Dolby TrueHD with Dolby Atmos
  70. Codec ID : A_TRUEHD
  71. Duration : 2 h 16 min
  72. Bit rate mode : Variable
  73. Bit rate : 4 337 kb/s
  74. Maximum bit rate : 6 105 kb/s
  75. Channel(s) : 8 channels
  76. Channel layout : L R C LFE Ls Rs Lb Rb
  77. Sampling rate : 48.0 kHz
  78. Frame rate : 1 200.000 FPS (40 SPF)
  79. Compression mode : Lossless
  80. Stream size : 4.13 GiB (8%)
  81. Title : Original
  82. Language : English
  83. Default : No
  84. Forced : No
  85. Number of dynamic objects : 13
  86. Bed channel count : 1 channel
  87. Bed channel configuration : LFE
  88.  
  89. Audio #3
  90. ID : 4
  91. Format : AC-3
  92. Format/Info : Audio Coding 3
  93. Commercial name : Dolby Digital
  94. Codec ID : A_AC3
  95. Duration : 2 h 16 min
  96. Bit rate mode : Constant
  97. Bit rate : 640 kb/s
  98. Channel(s) : 6 channels
  99. Channel layout : L R C LFE Ls Rs
  100. Sampling rate : 48.0 kHz
  101. Frame rate : 31.250 FPS (1536 SPF)
  102. Compression mode : Lossy
  103. Stream size : 624 MiB (1%)
  104. Language : English
  105. Service kind : Complete Main
  106. Default : No
  107. Forced : No
  108.  
  109. Text #1
  110. ID : 5
  111. Format : UTF-8
  112. Codec ID : S_TEXT/UTF8
  113. Codec ID/Info : UTF-8 Plain Text
  114. Duration : 2 h 6 min
  115. Bit rate : 0 b/s
  116. Count of elements : 7
  117. Stream size : 316 Bytes (0%)
  118. Title : Forced
  119. Language : Russian
  120. Default : Yes
  121. Forced : Yes
  122.  
  123. Text #2
  124. ID : 6
  125. Format : UTF-8
  126. Codec ID : S_TEXT/UTF8
  127. Codec ID/Info : UTF-8 Plain Text
  128. Duration : 2 h 6 min
  129. Bit rate : 72 b/s
  130. Count of elements : 1170
  131. Stream size : 67.3 KiB (0%)
  132. Title : Full
  133. Language : Russian
  134. Default : No
  135. Forced : No
  136.  
  137. Text #3
  138. ID : 7
  139. Format : UTF-8
  140. Codec ID : S_TEXT/UTF8
  141. Codec ID/Info : UTF-8 Plain Text
  142. Duration : 2 h 5 min
  143. Bit rate : 46 b/s
  144. Count of elements : 1329
  145. Stream size : 43.0 KiB (0%)
  146. Language : English
  147. Default : No
  148. Forced : No
  149.  
  150. Menu
  151. 00:00:00.000 : An Unorthodox Catch/Opening Credits
  152. 00:03:34.172 : On Trial
  153. 00:08:46.776 : Royal Visit
  154. 00:15:58.583 : Escape
  155. 00:18:34.155 : The Captain's Daughter
  156. 00:21:15.316 : Stolen Identity
  157. 00:30:05.512 : The Queen Anne
  158. 00:36:56.756 : Mutiny Most Foul
  159. 00:42:05.356 : A Bad Man
  160. 00:48:20.022 : The Prophecy
  161. 00:53:26.078 : Thick as Thieves
  162. 00:55:42.965 : The Truth
  163. 00:57:52.844 : Whitecap Bay
  164. 01:00:47.477 : God Save Me
  165. 01:08:22.223 : A Proper Mermaid
  166. 01:11:41.339 : Through The Jungle
  167. 01:13:03.170 : Whatever is Necessary
  168. 01:14:16.744 : A Sudden Urge To Jump
  169. 01:23:19.995 : No, You
  170. 01:26:49.621 : Jungle Pools
  171. 01:30:16.494 : Stirrings
  172. 01:35:43.738 : An Improvised Escape
  173. 01:40:57.927 : A Trade for the Compass
  174. 01:43:07.556 : A Dramatic Entrance
  175. 01:44:51.660 : Aqua de Vida
  176. 01:48:53.610 : One Last Fight
  177. 01:57:41.471 : Do Not Waste My Tear
  178. 02:02:21.376 : Choosing the Dog
  179. 02:05:51.461 : For The Pearl
  180. 02:07:26.806 : Credits
  181.  
  182.  
Advertisement
Advertisement
Advertisement
RAW Paste Data Copied
Advertisement