yushiro

p.12 Trampas (2009)[Bluray 1080p].yus

Feb 22nd, 2021
25
Never
Not a member of Pastebin yet? Sign Up, it unlocks many cool features!
  1. General
  2. Unique ID : 151182783508398725722779234342212666808 (0x71BCBEB73C7D07407AB31AE1758705B8)
  3. Complete name : G:\12 Trampas (2009)[Bluray 1080p].mkv
  4. Format : Matroska
  5. Format version : Version 4
  6. File size : 17.1 GiB
  7. Duration : 1 h 49 min
  8. Overall bit rate mode : Variable
  9. Overall bit rate : 22.3 Mb/s
  10. Encoded date : UTC 2021-02-21 23:49:22
  11. Writing application : mkvmerge v51.0.0 ('I Wish') 64-bit
  12. Writing library : libebml v1.4.0 + libmatroska v1.6.2
  13.  
  14. Video
  15. ID : 1
  16. Format : AVC
  17. Format/Info : Advanced Video Codec
  18. Format profile : High@L4.1
  19. Format settings : CABAC / 5 Ref Frames
  20. Format settings, CABAC : Yes
  21. Format settings, Reference : 5 frames
  22. Codec ID : V_MPEG4/ISO/AVC
  23. Duration : 1 h 49 min
  24. Bit rate : 17.4 Mb/s
  25. Width : 1 920 pixels
  26. Height : 804 pixels
  27. Display aspect ratio : 2.40:1
  28. Frame rate mode : Constant
  29. Frame rate : 23.976 (24000/1001) FPS
  30. Color space : YUV
  31. Chroma subsampling : 4:2:0
  32. Bit depth : 8 bits
  33. Scan type : Progressive
  34. Bits/(Pixel*Frame) : 0.470
  35. Stream size : 13.3 GiB (78%)
  36. Title : 12 Trampas (2009)[Bluray 1080p]
  37. Writing library : x264 core 68 r1184M 88b35c2
  38. Encoding settings : cabac=1 / ref=5 / deblock=1:-3:-3 / analyse=0x3:0x133 / me=umh / subme=9 / psy_rd=1.2:0.0 / mixed_ref=1 / me_range=64 / chroma_me=1 / trellis=2 / 8x8dct=1 / cqm=2 / deadzone=21,11 / chroma_qp_offset=-2 / threads=12 / nr=0 / decimate=0 / mbaff=0 / bframes=6 / b_pyramid=1 / b_adapt=2 / b_bias=0 / direct=3 / wpredb=1 / keyint=250 / keyint_min=25 / scenecut=40 / rc=2pass / bitrate=17391 / ratetol=1.0 / qcomp=0.60 / qpmin=10 / qpmax=51 / qpstep=4 / cplxblur=20.0 / qblur=0.5 / ip_ratio=1.40 / pb_ratio=1.30 / aq=1:1.20
  39. Language : Spanish
  40. Default : Yes
  41. Forced : No
  42.  
  43. Audio #1
  44. ID : 2
  45. Format : DTS
  46. Format/Info : Digital Theater Systems
  47. Codec ID : A_DTS
  48. Duration : 1 h 49 min
  49. Bit rate mode : Constant
  50. Bit rate : 768 kb/s
  51. Channel(s) : 6 channels
  52. Channel layout : C L R Ls Rs LFE
  53. Sampling rate : 48.0 kHz
  54. Frame rate : 93.750 FPS (512 SPF)
  55. Bit depth : 24 bits
  56. Compression mode : Lossy
  57. Stream size : 602 MiB (3%)
  58. Title : Surround DTS 5.1
  59. Language : Spanish
  60. Default : Yes
  61. Forced : No
  62.  
  63. Audio #2
  64. ID : 3
  65. Format : DTS XLL
  66. Format/Info : Digital Theater Systems
  67. Commercial name : DTS-HD Master Audio
  68. Codec ID : A_DTS
  69. Duration : 1 h 49 min
  70. Bit rate mode : Variable
  71. Bit rate : 4 129 kb/s
  72. Channel(s) : 6 channels
  73. Channel layout : C L R Ls Rs LFE
  74. Sampling rate : 48.0 kHz
  75. Frame rate : 93.750 FPS (512 SPF)
  76. Bit depth : 24 bits
  77. Compression mode : Lossless
  78. Stream size : 3.16 GiB (18%)
  79. Title : Surround DTS-HD M 5.1
  80. Language : English
  81. Default : No
  82. Forced : No
  83.  
  84. Text #1
  85. ID : 4
  86. Format : PGS
  87. Muxing mode : zlib
  88. Codec ID : S_HDMV/PGS
  89. Codec ID/Info : Picture based subtitle format used on BDs/HD-DVDs
  90. Duration : 1 h 48 min
  91. Bit rate : 212 b/s
  92. Count of elements : 17
  93. Stream size : 169 KiB (0%)
  94. Title : Forzados
  95. Language : Spanish
  96. Default : Yes
  97. Forced : Yes
  98.  
  99. Text #2
  100. ID : 5
  101. Format : PGS
  102. Muxing mode : zlib
  103. Codec ID : S_HDMV/PGS
  104. Codec ID/Info : Picture based subtitle format used on BDs/HD-DVDs
  105. Duration : 1 h 48 min
  106. Bit rate : 34.0 kb/s
  107. Count of elements : 2401
  108. Stream size : 26.4 MiB (0%)
  109. Title : Completos
  110. Language : Spanish
  111. Default : No
  112. Forced : No
  113.  
  114. Text #3
  115. ID : 6
  116. Format : PGS
  117. Muxing mode : zlib
  118. Codec ID : S_HDMV/PGS
  119. Codec ID/Info : Picture based subtitle format used on BDs/HD-DVDs
  120. Duration : 1 h 44 min
  121. Bit rate : 39.6 kb/s
  122. Count of elements : 2612
  123. Stream size : 29.6 MiB (0%)
  124. Title : Inglés
  125. Language : English
  126. Default : No
  127. Forced : No
  128.  
  129. Menu
  130. 00:00:00.000 : en:00:00:00.000
  131. 00:02:44.581 : en:00:02:44.581
  132. 00:04:28.268 : en:00:04:28.268
  133. 00:07:36.122 : en:00:07:36.122
  134. 00:11:57.050 : en:00:11:57.050
  135. 00:14:26.115 : en:00:14:26.115
  136. 00:17:33.803 : en:00:17:33.803
  137. 00:20:26.600 : en:00:20:26.600
  138. 00:22:25.344 : en:00:22:25.344
  139. 00:24:11.325 : en:00:24:11.325
  140. 00:26:43.352 : en:00:26:43.352
  141. 00:28:40.594 : en:00:28:40.594
  142. 00:33:53.490 : en:00:33:53.490
  143. 00:34:59.514 : en:00:34:59.514
  144. 00:38:23.676 : en:00:38:23.676
  145. 00:44:21.117 : en:00:44:21.117
  146. 00:50:54.802 : en:00:50:54.802
  147. 00:56:05.404 : en:00:56:05.404
  148. 01:00:30.752 : en:01:00:30.752
  149. 01:03:28.763 : en:01:03:28.763
  150. 01:06:28.109 : en:01:06:28.109
  151. 01:14:04.607 : en:01:14:04.607
  152. 01:15:38.033 : en:01:15:38.033
  153. 01:17:02.826 : en:01:17:02.826
  154. 01:25:25.579 : en:01:25:25.579
  155. 01:29:12.931 : en:01:29:12.931
  156. 01:31:06.711 : en:01:31:06.711
  157. 01:35:31.768 : en:01:35:31.768
  158. 01:36:57.937 : en:01:36:57.937
  159. 01:40:06.208 : en:01:40:06.208
  160. 01:42:45.075 : en:01:42:45.075
  161. 01:45:32.451 : en:01:45:32.451
  162.  
  163.  
RAW Paste Data

Adblocker detected! Please consider disabling it...

We've detected AdBlock Plus or some other adblocking software preventing Pastebin.com from fully loading.

We don't have any obnoxious sound, or popup ads, we actively block these annoying types of ads!

Please add Pastebin.com to your ad blocker whitelist or disable your adblocking software.

×