SHARE
TWEET

Untitled

mft39anton Jul 25th, 2019 50 Never
Not a member of Pastebin yet? Sign Up, it unlocks many cool features!
  1. Disc Title:     A Night to Remember 1958 1080p ITA  Blu-ray AVC DTS-HD MA 2.0-CtrlHD
  2. Disc Size:      44,714,836,061 bytes
  3. Protection:     AACS
  4. BD-Java:        No
  5. BDInfo:         0.7.3.3
  6.  
  7. Notes:          
  8.  
  9. BDINFO HOME:
  10.   Cinema Squid
  11.     http://www.cinemasquid.com/blu-ray/tools/bdinfo
  12.  
  13. INCLUDES FORUMS REPORT FOR:
  14.   AVS Forum Blu-ray Audio and Video Specifications Thread
  15.     http://www.avsforum.com/avs-vb/showthread.php?t=1155731
  16.  
  17.  
  18. ********************
  19. PLAYLIST: 00002.MPLS
  20. ********************
  21.  
  22. <--- BEGIN FORUMS PASTE --->
  23. [code]
  24.                                                                                                                 Total   Video                                            
  25. Title                                                           Codec   Length  Movie Size      Disc Size       Bitrate Bitrate Main Audio Track                          Secondary Audio Track
  26. -----                                                           ------  ------- --------------  --------------  ------- ------- ------------------                        ---------------------
  27. 00002.MPLS                                                      AVC     2:03:07 19,780,405,248  44,714,836,061  21.42   17.81   DD AC3 2.0 384Kbps                        
  28. [/code]
  29.  
  30. [code]
  31.  
  32. DISC INFO:
  33.  
  34. Disc Title:     A Night to Remember 1958 1080p ITA  Blu-ray AVC DTS-HD MA 2.0-CtrlHD
  35. Disc Size:      44,714,836,061 bytes
  36. Protection:     AACS
  37. BD-Java:        No
  38. BDInfo:         0.7.3.3
  39.  
  40. PLAYLIST REPORT:
  41.  
  42. Name:                   00002.MPLS
  43. Length:                 2:03:07.421 (h:m:s.ms)
  44. Size:                   19,780,405,248 bytes
  45. Total Bitrate:          21.42 Mbps
  46.  
  47. VIDEO:
  48.  
  49. Codec                   Bitrate             Description    
  50. -----                   -------             -----------    
  51. MPEG-4 AVC Video        17810 kbps          1080p / 23.976 fps / 16:9 / High Profile 4.0
  52.  
  53. AUDIO:
  54.  
  55. Codec                           Language        Bitrate         Description    
  56. -----                           --------        -------         -----------    
  57. Dolby Digital Audio             Italian         384 kbps        2.0 / 48 kHz / 384 kbps
  58. Dolby Digital Audio             English         384 kbps        2.0 / 48 kHz / 384 kbps
  59. DTS-HD Master Audio             English         1563 kbps       2.0 / 48 kHz / 1563 kbps / 16-bit (DTS Core: 2.0 / 48 kHz / 1509 kbps / 16-bit)
  60.  
  61. SUBTITLES:
  62.  
  63. Codec                           Language        Bitrate         Description    
  64. -----                           --------        -------         -----------    
  65. Presentation Graphics           Italian         0.812 kbps                      
  66. Presentation Graphics           Italian         22.802 kbps                    
  67.  
  68. FILES:
  69.  
  70. Name            Time In         Length          Size            Total Bitrate  
  71. ----            -------         ------          ----            -------------  
  72. 00002.M2TS      0:00:00.000     2:03:07.421     19,780,405,248  21,421          
  73.  
  74. CHAPTERS:
  75.  
  76. Number          Time In         Length          Avg Video Rate  Max 1-Sec Rate  Max 1-Sec Time  Max 5-Sec Rate  Max 5-Sec Time  Max 10Sec Rate  Max 10Sec Time  Avg Frame Size  Max Frame Size  Max Frame Time  
  77. ------          -------         ------          --------------  --------------  --------------  --------------  --------------  --------------  --------------  --------------  --------------  --------------  
  78. 1               0:00:00.000     0:09:43.666     17,506 kbps     32,548 kbps     00:03:34.756    21,888 kbps     00:01:20.080    20,540 kbps     00:01:16.576    91,256 bytes    257,475 bytes   00:06:06.366    
  79. 2               0:09:43.666     0:10:41.557     17,862 kbps     30,826 kbps     00:13:49.912    21,757 kbps     00:12:55.483    20,246 kbps     00:12:50.811    93,129 bytes    267,892 bytes   00:13:33.395    
  80. 3               0:20:25.224     0:10:26.000     18,047 kbps     30,678 kbps     00:30:08.640    21,484 kbps     00:30:46.219    20,170 kbps     00:22:30.390    94,080 bytes    298,262 bytes   00:23:52.097    
  81. 4               0:30:51.224     0:09:28.859     17,954 kbps     29,205 kbps     00:31:44.777    22,102 kbps     00:32:29.989    19,726 kbps     00:32:58.101    93,612 bytes    303,494 bytes   00:32:59.185    
  82. 5               0:40:20.084     0:11:05.581     17,874 kbps     31,122 kbps     00:48:32.409    21,366 kbps     00:49:31.718    19,831 kbps     00:47:08.450    93,187 bytes    294,752 bytes   00:47:08.492    
  83. 6               0:51:25.665     0:10:45.895     17,873 kbps     32,264 kbps     01:01:03.618    22,318 kbps     00:56:35.725    20,197 kbps     00:51:37.761    93,175 bytes    288,984 bytes   00:56:31.012    
  84. 7               1:02:11.561     0:09:46.711     17,700 kbps     31,693 kbps     01:04:29.448    21,759 kbps     01:04:26.529    19,930 kbps     01:08:18.636    92,288 bytes    285,541 bytes   01:09:21.365    
  85. 8               1:11:58.272     0:11:01.869     17,867 kbps     31,174 kbps     01:20:14.976    20,907 kbps     01:21:54.451    19,698 kbps     01:21:53.241    93,142 bytes    227,129 bytes   01:20:15.060    
  86. 9               1:23:00.141     0:09:28.484     17,960 kbps     26,750 kbps     01:23:33.049    20,788 kbps     01:32:15.029    19,336 kbps     01:23:25.041    93,635 bytes    234,839 bytes   01:32:28.000    
  87. 10              1:32:28.626     0:10:15.448     17,913 kbps     30,254 kbps     01:38:00.875    22,246 kbps     01:41:37.007    20,568 kbps     01:36:52.765    93,398 bytes    306,008 bytes   01:37:01.774    
  88. 11              1:42:44.074     0:11:36.320     17,952 kbps     33,685 kbps     01:47:53.717    22,345 kbps     01:45:39.166    20,675 kbps     01:52:54.726    93,595 bytes    271,213 bytes   01:52:10.515    
  89. 12              1:54:20.395     0:08:47.026     17,070 kbps     30,171 kbps     02:02:25.129    21,603 kbps     01:54:22.021    19,578 kbps     01:59:52.101    89,012 bytes    243,856 bytes   01:57:59.030    
  90.  
  91. STREAM DIAGNOSTICS:
  92.  
  93. File            PID             Type            Codec           Language                Seconds                 Bitrate                 Bytes           Packets        
  94. ----            ---             ----            -----           --------                --------------          --------------          -------------   -----          
  95. 00002.M2TS      4113 (0x1011)   0x1B            AVC                                     7387.338                17,810                  16,446,304,185  89,486,423      
  96. 00002.M2TS      4352 (0x1100)   0x81            AC3             ita (Italian)           7387.338                384                     354,593,280     2,077,695      
  97. 00002.M2TS      4353 (0x1101)   0x81            AC3             eng (English)           7387.338                384                     354,593,280     2,077,695      
  98. 00002.M2TS      4354 (0x1102)   0x86            DTS-HD MA       eng (English)           7387.338                1,563                   1,443,651,984   9,003,968      
  99. 00002.M2TS      4608 (0x1200)   0x90            PGS             ita (Italian)           7387.338                1                       750,006         4,421          
  100. 00002.M2TS      4609 (0x1201)   0x90            PGS             ita (Italian)           7387.338                23                      21,056,075      125,221        
  101.  
  102. [/code]
  103. <---- END FORUMS PASTE ---->
  104.  
  105. QUICK SUMMARY:
  106.  
  107. Disc Title: A Night to Remember 1958 1080p ITA  Blu-ray AVC DTS-HD MA 2.0-CtrlHD
  108. Disc Size: 44,714,836,061 bytes
  109. Protection: AACS
  110. BD-Java: No
  111. Playlist: 00002.MPLS
  112. Size: 19,780,405,248 bytes
  113. Length: 2:03:07.421
  114. Total Bitrate: 21.42 Mbps
  115. Video: MPEG-4 AVC Video / 17810 kbps / 1080p / 23.976 fps / 16:9 / High Profile 4.0
  116. Audio: Italian / Dolby Digital Audio / 2.0 / 48 kHz / 384 kbps
  117. Audio: English / Dolby Digital Audio / 2.0 / 48 kHz / 384 kbps
  118. Audio: English / DTS-HD Master Audio / 2.0 / 48 kHz / 1563 kbps / 16-bit (DTS Core: 2.0 / 48 kHz / 1509 kbps / 16-bit)
  119. Subtitle: Italian / 0.812 kbps
  120. Subtitle: Italian / 22.802 kbps
  121.  
  122.  
  123. ********************
  124. PLAYLIST: 00011.MPLS
  125. ********************
  126.  
  127. <--- BEGIN FORUMS PASTE --->
  128. [code]
  129.                                                                                                                 Total   Video                                            
  130. Title                                                           Codec   Length  Movie Size      Disc Size       Bitrate Bitrate Main Audio Track                          Secondary Audio Track
  131. -----                                                           ------  ------- --------------  --------------  ------- ------- ------------------                        ---------------------
  132. 00011.MPLS                                                      AVC     0:57:53 8,574,922,752   44,714,836,061  19.75   18.56   DD AC3 1.0 192Kbps                        
  133. [/code]
  134.  
  135. [code]
  136.  
  137. DISC INFO:
  138.  
  139. Disc Title:     A Night to Remember 1958 1080p ITA  Blu-ray AVC DTS-HD MA 2.0-CtrlHD
  140. Disc Size:      44,714,836,061 bytes
  141. Protection:     AACS
  142. BD-Java:        No
  143. BDInfo:         0.7.3.3
  144.  
  145. PLAYLIST REPORT:
  146.  
  147. Name:                   00011.MPLS
  148. Length:                 0:57:53.503 (h:m:s.ms)
  149. Size:                   8,574,922,752 bytes
  150. Total Bitrate:          19.75 Mbps
  151.  
  152. VIDEO:
  153.  
  154. Codec                   Bitrate             Description    
  155. -----                   -------             -----------    
  156. MPEG-4 AVC Video        18562 kbps          1080i / 29.970 fps / 16:9 / High Profile 4.0
  157.  
  158. AUDIO:
  159.  
  160. Codec                           Language        Bitrate         Description    
  161. -----                           --------        -------         -----------    
  162. Dolby Digital Audio             English         192 kbps        1.0 / 48 kHz / 192 kbps
  163.  
  164. SUBTITLES:
  165.  
  166. Codec                           Language        Bitrate         Description    
  167. -----                           --------        -------         -----------    
  168. Presentation Graphics           Italian         34.274 kbps                    
  169.  
  170. FILES:
  171.  
  172. Name            Time In         Length          Size            Total Bitrate  
  173. ----            -------         ------          ----            -------------  
  174. 00011.M2TS      0:00:00.000     0:57:53.503     8,574,922,752   19,749          
  175.  
  176. CHAPTERS:
  177.  
  178. Number          Time In         Length          Avg Video Rate  Max 1-Sec Rate  Max 1-Sec Time  Max 5-Sec Rate  Max 5-Sec Time  Max 10Sec Rate  Max 10Sec Time  Avg Frame Size  Max Frame Size  Max Frame Time  
  179. ------          -------         ------          --------------  --------------  --------------  --------------  --------------  --------------  --------------  --------------  --------------  --------------  
  180. 1               0:00:00.000     0:57:53.503     18,562 kbps     30,879 kbps     00:23:04.082    22,257 kbps     00:56:02.325    20,959 kbps     00:23:45.257    77,420 bytes    292,632 bytes   00:01:38.798    
  181.  
  182. STREAM DIAGNOSTICS:
  183.  
  184. File            PID             Type            Codec           Language                Seconds                 Bitrate                 Bytes           Packets        
  185. ----            ---             ----            -----           --------                --------------          --------------          -------------   -----          
  186. 00011.M2TS      4113 (0x1011)   0x1B            AVC                                     3473.437                18,563                  8,059,505,463   43,914,401      
  187. 00011.M2TS      4352 (0x1100)   0x81            AC3             eng (English)           3473.437                192                     83,362,560      542,725        
  188. 00011.M2TS      4608 (0x1200)   0x90            PGS             ita (Italian)           3473.437                34                      14,881,480      87,546          
  189.  
  190. [/code]
  191. <---- END FORUMS PASTE ---->
  192.  
  193. QUICK SUMMARY:
  194.  
  195. Disc Title: A Night to Remember 1958 1080p ITA  Blu-ray AVC DTS-HD MA 2.0-CtrlHD
  196. Disc Size: 44,714,836,061 bytes
  197. Protection: AACS
  198. BD-Java: No
  199. Playlist: 00011.MPLS
  200. Size: 8,574,922,752 bytes
  201. Length: 0:57:53.503
  202. Total Bitrate: 19.75 Mbps
  203. Video: MPEG-4 AVC Video / 18562 kbps / 1080i / 29.970 fps / 16:9 / High Profile 4.0
  204. Audio: English / Dolby Digital Audio / 1.0 / 48 kHz / 192 kbps
  205. Subtitle: Italian / 34.274 kbps
  206.  
  207.  
  208. ********************
  209. PLAYLIST: 00009.MPLS
  210. ********************
  211.  
  212. <--- BEGIN FORUMS PASTE --->
  213. [code]
  214.                                                                                                                 Total   Video                                            
  215. Title                                                           Codec   Length  Movie Size      Disc Size       Bitrate Bitrate Main Audio Track                          Secondary Audio Track
  216. -----                                                           ------  ------- --------------  --------------  ------- ------- ------------------                        ---------------------
  217. 00009.MPLS                                                      AVC     0:48:41 7,266,772,992   44,714,836,061  19.90   18.71   DD AC3 2.0 192Kbps                        
  218. [/code]
  219.  
  220. [code]
  221.  
  222. DISC INFO:
  223.  
  224. Disc Title:     A Night to Remember 1958 1080p ITA  Blu-ray AVC DTS-HD MA 2.0-CtrlHD
  225. Disc Size:      44,714,836,061 bytes
  226. Protection:     AACS
  227. BD-Java:        No
  228. BDInfo:         0.7.3.3
  229.  
  230. PLAYLIST REPORT:
  231.  
  232. Name:                   00009.MPLS
  233. Length:                 0:48:41.952 (h:m:s.ms)
  234. Size:                   7,266,772,992 bytes
  235. Total Bitrate:          19.90 Mbps
  236.  
  237. VIDEO:
  238.  
  239. Codec                   Bitrate             Description    
  240. -----                   -------             -----------    
  241. MPEG-4 AVC Video        18709 kbps          1080i / 29.970 fps / 16:9 / High Profile 4.0
  242.  
  243. AUDIO:
  244.  
  245. Codec                           Language        Bitrate         Description    
  246. -----                           --------        -------         -----------    
  247. Dolby Digital Audio             English         192 kbps        2.0 / 48 kHz / 192 kbps
  248.  
  249. SUBTITLES:
  250.  
  251. Codec                           Language        Bitrate         Description    
  252. -----                           --------        -------         -----------    
  253. Presentation Graphics           Italian         28.318 kbps                    
  254.  
  255. FILES:
  256.  
  257. Name            Time In         Length          Size            Total Bitrate  
  258. ----            -------         ------          ----            -------------  
  259. 00009.M2TS      0:00:00.000     0:48:41.952     7,266,772,992   19,896          
  260.  
  261. CHAPTERS:
  262.  
  263. Number          Time In         Length          Avg Video Rate  Max 1-Sec Rate  Max 1-Sec Time  Max 5-Sec Rate  Max 5-Sec Time  Max 10Sec Rate  Max 10Sec Time  Avg Frame Size  Max Frame Size  Max Frame Time  
  264. ------          -------         ------          --------------  --------------  --------------  --------------  --------------  --------------  --------------  --------------  --------------  --------------  
  265. 1               0:00:00.000     0:48:41.952     18,709 kbps     38,339 kbps     00:22:13.231    23,135 kbps     00:06:33.926    21,071 kbps     00:06:46.606    78,033 bytes    285,373 bytes   00:34:57.261    
  266.  
  267. STREAM DIAGNOSTICS:
  268.  
  269. File            PID             Type            Codec           Language                Seconds                 Bitrate                 Bytes           Packets        
  270. ----            ---             ----            -----           --------                --------------          --------------          -------------   -----          
  271. 00009.M2TS      4113 (0x1011)   0x1B            AVC                                     2921.886                18,710                  6,833,452,961   37,233,278      
  272. 00009.M2TS      4352 (0x1100)   0x81            AC3             eng (English)           2921.886                192                     70,125,312      456,545        
  273. 00009.M2TS      4608 (0x1200)   0x90            PGS             ita (Italian)           2921.886                28                      10,342,812      60,039          
  274.  
  275. [/code]
  276. <---- END FORUMS PASTE ---->
  277.  
  278. QUICK SUMMARY:
  279.  
  280. Disc Title: A Night to Remember 1958 1080p ITA  Blu-ray AVC DTS-HD MA 2.0-CtrlHD
  281. Disc Size: 44,714,836,061 bytes
  282. Protection: AACS
  283. BD-Java: No
  284. Playlist: 00009.MPLS
  285. Size: 7,266,772,992 bytes
  286. Length: 0:48:41.952
  287. Total Bitrate: 19.90 Mbps
  288. Video: MPEG-4 AVC Video / 18709 kbps / 1080i / 29.970 fps / 16:9 / High Profile 4.0
  289. Audio: English / Dolby Digital Audio / 2.0 / 48 kHz / 192 kbps
  290. Subtitle: Italian / 28.318 kbps
  291.  
  292.  
  293. ********************
  294. PLAYLIST: 00010.MPLS
  295. ********************
  296.  
  297. <--- BEGIN FORUMS PASTE --->
  298. [code]
  299.                                                                                                                 Total   Video                                            
  300. Title                                                           Codec   Length  Movie Size      Disc Size       Bitrate Bitrate Main Audio Track                          Secondary Audio Track
  301. -----                                                           ------  ------- --------------  --------------  ------- ------- ------------------                        ---------------------
  302. 00010.MPLS                                                      AVC     0:32:25 4,970,913,792   44,714,836,061  20.44   19.22   DD AC3 1.0 192Kbps                        
  303. [/code]
  304.  
  305. [code]
  306.  
  307. DISC INFO:
  308.  
  309. Disc Title:     A Night to Remember 1958 1080p ITA  Blu-ray AVC DTS-HD MA 2.0-CtrlHD
  310. Disc Size:      44,714,836,061 bytes
  311. Protection:     AACS
  312. BD-Java:        No
  313. BDInfo:         0.7.3.3
  314.  
  315. PLAYLIST REPORT:
  316.  
  317. Name:                   00010.MPLS
  318. Length:                 0:32:25.977 (h:m:s.ms)
  319. Size:                   4,970,913,792 bytes
  320. Total Bitrate:          20.44 Mbps
  321.  
  322. VIDEO:
  323.  
  324. Codec                   Bitrate             Description    
  325. -----                   -------             -----------    
  326. MPEG-4 AVC Video        19225 kbps          1080i / 29.970 fps / 16:9 / High Profile 4.0
  327.  
  328. AUDIO:
  329.  
  330. Codec                           Language        Bitrate         Description    
  331. -----                           --------        -------         -----------    
  332. Dolby Digital Audio             Swedish         192 kbps        1.0 / 48 kHz / 192 kbps
  333.  
  334. SUBTITLES:
  335.  
  336. Codec                           Language        Bitrate         Description    
  337. -----                           --------        -------         -----------    
  338. Presentation Graphics           Italian         29.803 kbps                    
  339.  
  340. FILES:
  341.  
  342. Name            Time In         Length          Size            Total Bitrate  
  343. ----            -------         ------          ----            -------------  
  344. 00010.M2TS      0:00:00.000     0:32:25.977     4,970,913,792   20,436          
  345.  
  346. CHAPTERS:
  347.  
  348. Number          Time In         Length          Avg Video Rate  Max 1-Sec Rate  Max 1-Sec Time  Max 5-Sec Rate  Max 5-Sec Time  Max 10Sec Rate  Max 10Sec Time  Avg Frame Size  Max Frame Size  Max Frame Time  
  349. ------          -------         ------          --------------  --------------  --------------  --------------  --------------  --------------  --------------  --------------  --------------  --------------  
  350. 1               0:00:00.000     0:32:25.977     19,225 kbps     28,810 kbps     00:29:26.197    20,853 kbps     00:19:37.276    20,156 kbps     00:10:22.188    80,183 bytes    199,902 bytes   00:04:22.629    
  351.  
  352. STREAM DIAGNOSTICS:
  353.  
  354. File            PID             Type            Codec           Language                Seconds                 Bitrate                 Bytes           Packets        
  355. ----            ---             ----            -----           --------                --------------          --------------          -------------   -----          
  356. 00010.M2TS      4113 (0x1011)   0x1B            AVC                                     1945.877                19,226                  4,676,363,457   25,478,317      
  357. 00010.M2TS      4352 (0x1100)   0x81            AC3             swe (Swedish)           1945.877                192                     46,702,080      304,050        
  358. 00010.M2TS      4608 (0x1200)   0x90            PGS             ita (Italian)           1945.877                30                      7,249,597       42,596          
  359.  
  360. [/code]
  361. <---- END FORUMS PASTE ---->
  362.  
  363. QUICK SUMMARY:
  364.  
  365. Disc Title: A Night to Remember 1958 1080p ITA  Blu-ray AVC DTS-HD MA 2.0-CtrlHD
  366. Disc Size: 44,714,836,061 bytes
  367. Protection: AACS
  368. BD-Java: No
  369. Playlist: 00010.MPLS
  370. Size: 4,970,913,792 bytes
  371. Length: 0:32:25.977
  372. Total Bitrate: 20.44 Mbps
  373. Video: MPEG-4 AVC Video / 19225 kbps / 1080i / 29.970 fps / 16:9 / High Profile 4.0
  374. Audio: Swedish / Dolby Digital Audio / 1.0 / 48 kHz / 192 kbps
  375. Subtitle: Italian / 29.803 kbps
  376.  
  377.  
  378. ********************
  379. PLAYLIST: 00008.MPLS
  380. ********************
  381.  
  382. <--- BEGIN FORUMS PASTE --->
  383. [code]
  384.                                                                                                                 Total   Video                                            
  385. Title                                                           Codec   Length  Movie Size      Disc Size       Bitrate Bitrate Main Audio Track                          Secondary Audio Track
  386. -----                                                           ------  ------- --------------  --------------  ------- ------- ------------------                        ---------------------
  387. 00008.MPLS                                                      AVC     0:23:15 3,308,236,800   44,714,836,061  18.97   17.80   DD AC3 1.0 192Kbps                        
  388. [/code]
  389.  
  390. [code]
  391.  
  392. DISC INFO:
  393.  
  394. Disc Title:     A Night to Remember 1958 1080p ITA  Blu-ray AVC DTS-HD MA 2.0-CtrlHD
  395. Disc Size:      44,714,836,061 bytes
  396. Protection:     AACS
  397. BD-Java:        No
  398. BDInfo:         0.7.3.3
  399.  
  400. PLAYLIST REPORT:
  401.  
  402. Name:                   00008.MPLS
  403. Length:                 0:23:15.494 (h:m:s.ms)
  404. Size:                   3,308,236,800 bytes
  405. Total Bitrate:          18.97 Mbps
  406.  
  407. VIDEO:
  408.  
  409. Codec                   Bitrate             Description    
  410. -----                   -------             -----------    
  411. MPEG-4 AVC Video        17804 kbps          1080i / 29.970 fps / 16:9 / High Profile 4.0
  412.  
  413. AUDIO:
  414.  
  415. Codec                           Language        Bitrate         Description    
  416. -----                           --------        -------         -----------    
  417. Dolby Digital Audio             English         192 kbps        1.0 / 48 kHz / 192 kbps
  418.  
  419. SUBTITLES:
  420.  
  421. Codec                           Language        Bitrate         Description    
  422. -----                           --------        -------         -----------    
  423. Presentation Graphics           Italian         40.900 kbps                    
  424.  
  425. FILES:
  426.  
  427. Name            Time In         Length          Size            Total Bitrate  
  428. ----            -------         ------          ----            -------------  
  429. 00008.M2TS      0:00:00.000     0:23:15.494     3,308,236,800   18,965          
  430.  
  431. CHAPTERS:
  432.  
  433. Number          Time In         Length          Avg Video Rate  Max 1-Sec Rate  Max 1-Sec Time  Max 5-Sec Rate  Max 5-Sec Time  Max 10Sec Rate  Max 10Sec Time  Avg Frame Size  Max Frame Size  Max Frame Time  
  434. ------          -------         ------          --------------  --------------  --------------  --------------  --------------  --------------  --------------  --------------  --------------  --------------  
  435. 1               0:00:00.000     0:23:15.494     17,804 kbps     30,645 kbps     00:14:46.752    22,533 kbps     00:19:26.165    20,006 kbps     00:14:59.865    74,257 bytes    188,711 bytes   00:12:53.239    
  436.  
  437. STREAM DIAGNOSTICS:
  438.  
  439. File            PID             Type            Codec           Language                Seconds                 Bitrate                 Bytes           Packets        
  440. ----            ---             ----            -----           --------                --------------          --------------          -------------   -----          
  441. 00008.M2TS      4113 (0x1011)   0x1B            AVC                                     1395.394                17,805                  3,105,643,014   16,923,817      
  442. 00008.M2TS      4352 (0x1100)   0x81            AC3             eng (English)           1395.394                192                     33,490,944      218,040        
  443. 00008.M2TS      4608 (0x1200)   0x90            PGS             ita (Italian)           1395.394                41                      7,134,549       41,771          
  444.  
  445. [/code]
  446. <---- END FORUMS PASTE ---->
  447.  
  448. QUICK SUMMARY:
  449.  
  450. Disc Title: A Night to Remember 1958 1080p ITA  Blu-ray AVC DTS-HD MA 2.0-CtrlHD
  451. Disc Size: 44,714,836,061 bytes
  452. Protection: AACS
  453. BD-Java: No
  454. Playlist: 00008.MPLS
  455. Size: 3,308,236,800 bytes
  456. Length: 0:23:15.494
  457. Total Bitrate: 18.97 Mbps
  458. Video: MPEG-4 AVC Video / 17804 kbps / 1080i / 29.970 fps / 16:9 / High Profile 4.0
  459. Audio: English / Dolby Digital Audio / 1.0 / 48 kHz / 192 kbps
  460. Subtitle: Italian / 40.900 kbps
  461.  
  462.  
  463. ********************
  464. PLAYLIST: 00007.MPLS
  465. ********************
  466.  
  467. <--- BEGIN FORUMS PASTE --->
  468. [code]
  469.                                                                                                                 Total   Video                                            
  470. Title                                                           Codec   Length  Movie Size      Disc Size       Bitrate Bitrate Main Audio Track                          Secondary Audio Track
  471. -----                                                           ------  ------- --------------  --------------  ------- ------- ------------------                        ---------------------
  472. 00007.MPLS                                                      AVC     0:03:48 543,971,328     44,714,836,061  19.05   17.96   DD AC3 1.0 192Kbps                        
  473. [/code]
  474.  
  475. [code]
  476.  
  477. DISC INFO:
  478.  
  479. Disc Title:     A Night to Remember 1958 1080p ITA  Blu-ray AVC DTS-HD MA 2.0-CtrlHD
  480. Disc Size:      44,714,836,061 bytes
  481. Protection:     AACS
  482. BD-Java:        No
  483. BDInfo:         0.7.3.3
  484.  
  485. PLAYLIST REPORT:
  486.  
  487. Name:                   00007.MPLS
  488. Length:                 0:03:48.436 (h:m:s.ms)
  489. Size:                   543,971,328 bytes
  490. Total Bitrate:          19.05 Mbps
  491.  
  492. VIDEO:
  493.  
  494. Codec                   Bitrate             Description    
  495. -----                   -------             -----------    
  496. MPEG-4 AVC Video        17956 kbps          1080p / 23.976 fps / 16:9 / High Profile 4.0
  497.  
  498. AUDIO:
  499.  
  500. Codec                           Language        Bitrate         Description    
  501. -----                           --------        -------         -----------    
  502. Dolby Digital Audio             English         192 kbps        1.0 / 48 kHz / 192 kbps
  503.  
  504. FILES:
  505.  
  506. Name            Time In         Length          Size            Total Bitrate  
  507. ----            -------         ------          ----            -------------  
  508. 00007.M2TS      0:00:00.000     0:03:48.436     543,971,328     19,050          
  509.  
  510. CHAPTERS:
  511.  
  512. Number          Time In         Length          Avg Video Rate  Max 1-Sec Rate  Max 1-Sec Time  Max 5-Sec Rate  Max 5-Sec Time  Max 10Sec Rate  Max 10Sec Time  Avg Frame Size  Max Frame Size  Max Frame Time  
  513. ------          -------         ------          --------------  --------------  --------------  --------------  --------------  --------------  --------------  --------------  --------------  --------------  
  514. 1               0:00:00.000     0:03:48.436     17,956 kbps     25,993 kbps     00:03:24.245    22,874 kbps     00:03:24.245    20,070 kbps     00:03:03.975    93,633 bytes    195,505 bytes   00:03:07.353    
  515.  
  516. STREAM DIAGNOSTICS:
  517.  
  518. File            PID             Type            Codec           Language                Seconds                 Bitrate                 Bytes           Packets        
  519. ----            ---             ----            -----           --------                --------------          --------------          -------------   -----          
  520. 00007.M2TS      4113 (0x1011)   0x1B            AVC                                     228.353                 17,963                  512,735,241     2,789,813      
  521. 00007.M2TS      4352 (0x1100)   0x81            AC3             eng (English)           228.353                 192                     5,481,216       35,685          
  522.  
  523. [/code]
  524. <---- END FORUMS PASTE ---->
  525.  
  526. QUICK SUMMARY:
  527.  
  528. Disc Title: A Night to Remember 1958 1080p ITA  Blu-ray AVC DTS-HD MA 2.0-CtrlHD
  529. Disc Size: 44,714,836,061 bytes
  530. Protection: AACS
  531. BD-Java: No
  532. Playlist: 00007.MPLS
  533. Size: 543,971,328 bytes
  534. Length: 0:03:48.436
  535. Total Bitrate: 19.05 Mbps
  536. Video: MPEG-4 AVC Video / 17956 kbps / 1080p / 23.976 fps / 16:9 / High Profile 4.0
  537. Audio: English / Dolby Digital Audio / 1.0 / 48 kHz / 192 kbps
  538.  
  539.  
  540. ********************
  541. PLAYLIST: 00003.MPLS
  542. ********************
  543.  
  544. <--- BEGIN FORUMS PASTE --->
  545. [code]
  546.                                                                                                                 Total   Video                                            
  547. Title                                                           Codec   Length  Movie Size      Disc Size       Bitrate Bitrate Main Audio Track                          Secondary Audio Track
  548. -----                                                           ------  ------- --------------  --------------  ------- ------- ------------------                        ---------------------
  549. 00003.MPLS                                                      AVC     0:00:34 44,931,072      44,714,836,061  10.41   9.43    DD AC3 2.0 384Kbps                        
  550. [/code]
  551.  
  552. [code]
  553.  
  554. DISC INFO:
  555.  
  556. Disc Title:     A Night to Remember 1958 1080p ITA  Blu-ray AVC DTS-HD MA 2.0-CtrlHD
  557. Disc Size:      44,714,836,061 bytes
  558. Protection:     AACS
  559. BD-Java:        No
  560. BDInfo:         0.7.3.3
  561.  
  562. PLAYLIST REPORT:
  563.  
  564. Name:                   00003.MPLS
  565. Length:                 0:00:34.534 (h:m:s.ms)
  566. Size:                   44,931,072 bytes
  567. Total Bitrate:          10.41 Mbps
  568.  
  569. VIDEO:
  570.  
  571. Codec                   Bitrate             Description    
  572. -----                   -------             -----------    
  573. MPEG-4 AVC Video        9427 kbps           1080i / 29.970 fps / 16:9 / High Profile 4.1
  574.  
  575. AUDIO:
  576.  
  577. Codec                           Language        Bitrate         Description    
  578. -----                           --------        -------         -----------    
  579. Dolby Digital Audio             Italian         384 kbps        2.0 / 48 kHz / 384 kbps
  580.  
  581. SUBTITLES:
  582.  
  583. Codec                           Language        Bitrate         Description    
  584. -----                           --------        -------         -----------    
  585. Interactive Graphics            Italian         14.151 kbps                    
  586.  
  587. FILES:
  588.  
  589. Name            Time In         Length          Size            Total Bitrate  
  590. ----            -------         ------          ----            -------------  
  591. 00003.M2TS      0:00:00.000     0:00:34.534     44,931,072      10,408          
  592.  
  593. CHAPTERS:
  594.  
  595. Number          Time In         Length          Avg Video Rate  Max 1-Sec Rate  Max 1-Sec Time  Max 5-Sec Rate  Max 5-Sec Time  Max 10Sec Rate  Max 10Sec Time  Avg Frame Size  Max Frame Size  Max Frame Time  
  596. ------          -------         ------          --------------  --------------  --------------  --------------  --------------  --------------  --------------  --------------  --------------  --------------  
  597. 1               0:00:00.000     0:00:34.534     9,427 kbps      12,045 kbps     00:00:00.200    10,125 kbps     00:00:20.387    9,652 kbps      00:00:00.200    39,319 bytes    689,569 bytes   00:00:24.024    
  598.  
  599. STREAM DIAGNOSTICS:
  600.  
  601. File            PID             Type            Codec           Language                Seconds                 Bitrate                 Bytes           Packets        
  602. ----            ---             ----            -----           --------                --------------          --------------          -------------   -----          
  603. 00003.M2TS      4113 (0x1011)   0x1B            AVC                                     34.434                  9,454                   40,694,894      222,756        
  604. 00003.M2TS      4352 (0x1100)   0x81            AC3             ita (Italian)           34.434                  385                     1,657,344       9,711          
  605. 00003.M2TS      5120 (0x1400)   0x91            IGS             ita (Italian)           34.434                  14                      61,089          361            
  606.  
  607. [/code]
  608. <---- END FORUMS PASTE ---->
  609.  
  610. QUICK SUMMARY:
  611.  
  612. Disc Title: A Night to Remember 1958 1080p ITA  Blu-ray AVC DTS-HD MA 2.0-CtrlHD
  613. Disc Size: 44,714,836,061 bytes
  614. Protection: AACS
  615. BD-Java: No
  616. Playlist: 00003.MPLS
  617. Size: 44,931,072 bytes
  618. Length: 0:00:34.534
  619. Total Bitrate: 10.41 Mbps
  620. Video: MPEG-4 AVC Video / 9427 kbps / 1080i / 29.970 fps / 16:9 / High Profile 4.1
  621. Audio: Italian / Dolby Digital Audio / 2.0 / 48 kHz / 384 kbps
  622. Subtitle: Italian / 14.151 kbps
  623.  
  624.  
  625. ********************
  626. PLAYLIST: 00004.MPLS
  627. ********************
  628.  
  629. <--- BEGIN FORUMS PASTE --->
  630. [code]
  631.                                                                                                                 Total   Video                                            
  632. Title                                                           Codec   Length  Movie Size      Disc Size       Bitrate Bitrate Main Audio Track                          Secondary Audio Track
  633. -----                                                           ------  ------- --------------  --------------  ------- ------- ------------------                        ---------------------
  634. 00004.MPLS                                                      AVC     0:00:34 60,684,288      44,714,836,061  14.06   12.96   DD AC3 2.0 384Kbps                        
  635. [/code]
  636.  
  637. [code]
  638.  
  639. DISC INFO:
  640.  
  641. Disc Title:     A Night to Remember 1958 1080p ITA  Blu-ray AVC DTS-HD MA 2.0-CtrlHD
  642. Disc Size:      44,714,836,061 bytes
  643. Protection:     AACS
  644. BD-Java:        No
  645. BDInfo:         0.7.3.3
  646.  
  647. PLAYLIST REPORT:
  648.  
  649. Name:                   00004.MPLS
  650. Length:                 0:00:34.534 (h:m:s.ms)
  651. Size:                   60,684,288 bytes
  652. Total Bitrate:          14.06 Mbps
  653.  
  654. VIDEO:
  655.  
  656. Codec                   Bitrate             Description    
  657. -----                   -------             -----------    
  658. MPEG-4 AVC Video        12960 kbps          1080i / 29.970 fps / 16:9 / High Profile 4.1
  659.  
  660. AUDIO:
  661.  
  662. Codec                           Language        Bitrate         Description    
  663. -----                           --------        -------         -----------    
  664. Dolby Digital Audio             Italian         384 kbps        2.0 / 48 kHz / 384 kbps
  665.  
  666. SUBTITLES:
  667.  
  668. Codec                           Language        Bitrate         Description    
  669. -----                           --------        -------         -----------    
  670. Interactive Graphics            Italian         2.605 kbps                      
  671.  
  672. FILES:
  673.  
  674. Name            Time In         Length          Size            Total Bitrate  
  675. ----            -------         ------          ----            -------------  
  676. 00004.M2TS      0:00:00.000     0:00:34.534     60,684,288      14,058          
  677.  
  678. CHAPTERS:
  679.  
  680. Number          Time In         Length          Avg Video Rate  Max 1-Sec Rate  Max 1-Sec Time  Max 5-Sec Rate  Max 5-Sec Time  Max 10Sec Rate  Max 10Sec Time  Avg Frame Size  Max Frame Size  Max Frame Time  
  681. ------          -------         ------          --------------  --------------  --------------  --------------  --------------  --------------  --------------  --------------  --------------  --------------  
  682. 1               0:00:00.000     0:00:34.534     12,960 kbps     17,581 kbps     00:00:00.900    14,159 kbps     00:00:00.567    13,363 kbps     00:00:00.300    54,054 bytes    689,202 bytes   00:00:24.024    
  683.  
  684. STREAM DIAGNOSTICS:
  685.  
  686. File            PID             Type            Codec           Language                Seconds                 Bitrate                 Bytes           Packets        
  687. ----            ---             ----            -----           --------                --------------          --------------          -------------   -----          
  688. 00004.M2TS      4113 (0x1011)   0x1B            AVC                                     34.434                  12,998                  55,946,072      305,076        
  689. 00004.M2TS      4352 (0x1100)   0x81            AC3             ita (Italian)           34.434                  385                     1,657,344       9,711          
  690. 00004.M2TS      5120 (0x1400)   0x91            IGS             ita (Italian)           34.434                  3                       11,244          76              
  691.  
  692. [/code]
  693. <---- END FORUMS PASTE ---->
  694.  
  695. QUICK SUMMARY:
  696.  
  697. Disc Title: A Night to Remember 1958 1080p ITA  Blu-ray AVC DTS-HD MA 2.0-CtrlHD
  698. Disc Size: 44,714,836,061 bytes
  699. Protection: AACS
  700. BD-Java: No
  701. Playlist: 00004.MPLS
  702. Size: 60,684,288 bytes
  703. Length: 0:00:34.534
  704. Total Bitrate: 14.06 Mbps
  705. Video: MPEG-4 AVC Video / 12960 kbps / 1080i / 29.970 fps / 16:9 / High Profile 4.1
  706. Audio: Italian / Dolby Digital Audio / 2.0 / 48 kHz / 384 kbps
  707. Subtitle: Italian / 2.605 kbps
  708.  
  709.  
  710. ********************
  711. PLAYLIST: 00005.MPLS
  712. ********************
  713.  
  714. <--- BEGIN FORUMS PASTE --->
  715. [code]
  716.                                                                                                                 Total   Video                                            
  717. Title                                                           Codec   Length  Movie Size      Disc Size       Bitrate Bitrate Main Audio Track                          Secondary Audio Track
  718. -----                                                           ------  ------- --------------  --------------  ------- ------- ------------------                        ---------------------
  719. 00005.MPLS                                                      AVC     0:00:34 59,215,872      44,714,836,061  13.72   12.63   DD AC3 2.0 384Kbps                        
  720. [/code]
  721.  
  722. [code]
  723.  
  724. DISC INFO:
  725.  
  726. Disc Title:     A Night to Remember 1958 1080p ITA  Blu-ray AVC DTS-HD MA 2.0-CtrlHD
  727. Disc Size:      44,714,836,061 bytes
  728. Protection:     AACS
  729. BD-Java:        No
  730. BDInfo:         0.7.3.3
  731.  
  732. PLAYLIST REPORT:
  733.  
  734. Name:                   00005.MPLS
  735. Length:                 0:00:34.534 (h:m:s.ms)
  736. Size:                   59,215,872 bytes
  737. Total Bitrate:          13.72 Mbps
  738.  
  739. VIDEO:
  740.  
  741. Codec                   Bitrate             Description    
  742. -----                   -------             -----------    
  743. MPEG-4 AVC Video        12629 kbps          1080i / 29.970 fps / 16:9 / High Profile 4.1
  744.  
  745. AUDIO:
  746.  
  747. Codec                           Language        Bitrate         Description    
  748. -----                           --------        -------         -----------    
  749. Dolby Digital Audio             Italian         384 kbps        2.0 / 48 kHz / 384 kbps
  750.  
  751. SUBTITLES:
  752.  
  753. Codec                           Language        Bitrate         Description    
  754. -----                           --------        -------         -----------    
  755. Interactive Graphics            Italian         2.129 kbps                      
  756.  
  757. FILES:
  758.  
  759. Name            Time In         Length          Size            Total Bitrate  
  760. ----            -------         ------          ----            -------------  
  761. 00005.M2TS      0:00:00.000     0:00:34.534     59,215,872      13,717          
  762.  
  763. CHAPTERS:
  764.  
  765. Number          Time In         Length          Avg Video Rate  Max 1-Sec Rate  Max 1-Sec Time  Max 5-Sec Rate  Max 5-Sec Time  Max 10Sec Rate  Max 10Sec Time  Avg Frame Size  Max Frame Size  Max Frame Time  
  766. ------          -------         ------          --------------  --------------  --------------  --------------  --------------  --------------  --------------  --------------  --------------  --------------  
  767. 1               0:00:00.000     0:00:34.534     12,629 kbps     16,572 kbps     00:00:00.300    13,688 kbps     00:00:00.567    12,976 kbps     00:00:00.300    52,672 bytes    694,580 bytes   00:00:24.024    
  768.  
  769. STREAM DIAGNOSTICS:
  770.  
  771. File            PID             Type            Codec           Language                Seconds                 Bitrate                 Bytes           Packets        
  772. ----            ---             ----            -----           --------                --------------          --------------          -------------   -----          
  773. 00005.M2TS      4113 (0x1011)   0x1B            AVC                                     34.434                  12,665                  54,515,164      297,448        
  774. 00005.M2TS      4352 (0x1100)   0x81            AC3             ita (Italian)           34.434                  385                     1,657,344       9,711          
  775. 00005.M2TS      5120 (0x1400)   0x91            IGS             ita (Italian)           34.434                  2                       9,190           62              
  776.  
  777. [/code]
  778. <---- END FORUMS PASTE ---->
  779.  
  780. QUICK SUMMARY:
  781.  
  782. Disc Title: A Night to Remember 1958 1080p ITA  Blu-ray AVC DTS-HD MA 2.0-CtrlHD
  783. Disc Size: 44,714,836,061 bytes
  784. Protection: AACS
  785. BD-Java: No
  786. Playlist: 00005.MPLS
  787. Size: 59,215,872 bytes
  788. Length: 0:00:34.534
  789. Total Bitrate: 13.72 Mbps
  790. Video: MPEG-4 AVC Video / 12629 kbps / 1080i / 29.970 fps / 16:9 / High Profile 4.1
  791. Audio: Italian / Dolby Digital Audio / 2.0 / 48 kHz / 384 kbps
  792. Subtitle: Italian / 2.129 kbps
  793.  
  794.  
  795. ********************
  796. PLAYLIST: 00006.MPLS
  797. ********************
  798.  
  799. <--- BEGIN FORUMS PASTE --->
  800. [code]
  801.                                                                                                                 Total   Video                                            
  802. Title                                                           Codec   Length  Movie Size      Disc Size       Bitrate Bitrate Main Audio Track                          Secondary Audio Track
  803. -----                                                           ------  ------- --------------  --------------  ------- ------- ------------------                        ---------------------
  804. 00006.MPLS                                                      AVC     0:00:34 59,480,064      44,714,836,061  13.78   12.69   DD AC3 2.0 384Kbps                        
  805. [/code]
  806.  
  807. [code]
  808.  
  809. DISC INFO:
  810.  
  811. Disc Title:     A Night to Remember 1958 1080p ITA  Blu-ray AVC DTS-HD MA 2.0-CtrlHD
  812. Disc Size:      44,714,836,061 bytes
  813. Protection:     AACS
  814. BD-Java:        No
  815. BDInfo:         0.7.3.3
  816.  
  817. PLAYLIST REPORT:
  818.  
  819. Name:                   00006.MPLS
  820. Length:                 0:00:34.534 (h:m:s.ms)
  821. Size:                   59,480,064 bytes
  822. Total Bitrate:          13.78 Mbps
  823.  
  824. VIDEO:
  825.  
  826. Codec                   Bitrate             Description    
  827. -----                   -------             -----------    
  828. MPEG-4 AVC Video        12688 kbps          1080i / 29.970 fps / 16:9 / High Profile 4.1
  829.  
  830. AUDIO:
  831.  
  832. Codec                           Language        Bitrate         Description    
  833. -----                           --------        -------         -----------    
  834. Dolby Digital Audio             Italian         384 kbps        2.0 / 48 kHz / 384 kbps
  835.  
  836. SUBTITLES:
  837.  
  838. Codec                           Language        Bitrate         Description    
  839. -----                           --------        -------         -----------    
  840. Interactive Graphics            Italian         1.991 kbps                      
  841.  
  842. FILES:
  843.  
  844. Name            Time In         Length          Size            Total Bitrate  
  845. ----            -------         ------          ----            -------------  
  846. 00006.M2TS      0:00:00.000     0:00:34.534     59,480,064      13,779          
  847.  
  848. CHAPTERS:
  849.  
  850. Number          Time In         Length          Avg Video Rate  Max 1-Sec Rate  Max 1-Sec Time  Max 5-Sec Rate  Max 5-Sec Time  Max 10Sec Rate  Max 10Sec Time  Avg Frame Size  Max Frame Size  Max Frame Time  
  851. ------          -------         ------          --------------  --------------  --------------  --------------  --------------  --------------  --------------  --------------  --------------  --------------  
  852. 1               0:00:00.000     0:00:34.534     12,688 kbps     16,550 kbps     00:00:00.300    13,719 kbps     00:00:00.567    13,022 kbps     00:00:00.300    52,919 bytes    700,572 bytes   00:00:24.024    
  853.  
  854. STREAM DIAGNOSTICS:
  855.  
  856. File            PID             Type            Codec           Language                Seconds                 Bitrate                 Bytes           Packets        
  857. ----            ---             ----            -----           --------                --------------          --------------          -------------   -----          
  858. 00006.M2TS      4113 (0x1011)   0x1B            AVC                                     34.434                  12,725                  54,771,535      298,833        
  859. 00006.M2TS      4352 (0x1100)   0x81            AC3             ita (Italian)           34.434                  385                     1,657,344       9,711          
  860. 00006.M2TS      5120 (0x1400)   0x91            IGS             ita (Italian)           34.434                  2                       8,594           61              
  861.  
  862. [/code]
  863. <---- END FORUMS PASTE ---->
  864.  
  865. QUICK SUMMARY:
  866.  
  867. Disc Title: A Night to Remember 1958 1080p ITA  Blu-ray AVC DTS-HD MA 2.0-CtrlHD
  868. Disc Size: 44,714,836,061 bytes
  869. Protection: AACS
  870. BD-Java: No
  871. Playlist: 00006.MPLS
  872. Size: 59,480,064 bytes
  873. Length: 0:00:34.534
  874. Total Bitrate: 13.78 Mbps
  875. Video: MPEG-4 AVC Video / 12688 kbps / 1080i / 29.970 fps / 16:9 / High Profile 4.1
  876. Audio: Italian / Dolby Digital Audio / 2.0 / 48 kHz / 384 kbps
  877. Subtitle: Italian / 1.991 kbps
RAW Paste Data
We use cookies for various purposes including analytics. By continuing to use Pastebin, you agree to our use of cookies as described in the Cookies Policy. OK, I Understand
Not a member of Pastebin yet?
Sign Up, it unlocks many cool features!
 
Top