SHARE
TWEET

KDL SDR works not

a guest Apr 23rd, 2020 5 Never
Not a member of Pastebin yet? Sign Up, it unlocks many cool features!
  1. General
  2. Unique ID : 168331458438182202374805647460337682166 (0x7EA375AAE43812CA0F301B5ADBF786F6)
  3. Complete name : -----
  4. Format : Matroska
  5. Format version : Version 4
  6. File size : 12.0 GiB
  7. Duration : 1 h 58 min
  8. Overall bit rate : 14.5 Mb/s
  9. Movie name : ------
  10. Encoded date : UTC 2019-10-12 12:11:11
  11. Writing application : mkvmerge v38.0.0 ('The Silent Type') 64-bit
  12. Writing library : libebml v1.3.9 + libmatroska v1.5.2
  13.  
  14. Video
  15. ID : 1
  16. Format : AVC
  17. Format/Info : Advanced Video Codec
  18. Format profile : High@L4.1
  19. Format settings : CABAC / 4 Ref Frames
  20. Format settings, CABAC : Yes
  21. Format settings, Reference frames : 4 frames
  22. Codec ID : V_MPEG4/ISO/AVC
  23. Duration : 1 h 58 min
  24. Bit rate : 12.9 Mb/s
  25. Width : 1 920 pixels
  26. Height : 1 080 pixels
  27. Display aspect ratio : 16:9
  28. Frame rate mode : Constant
  29. Frame rate : 23.976 (24000/1001) FPS
  30. Color space : YUV
  31. Chroma subsampling : 4:2:0
  32. Bit depth : 8 bits
  33. Scan type : Progressive
  34. Bits/(Pixel*Frame) : 0.259
  35. Stream size : 10.7 GiB (89%)
  36. Writing library : x264 core 157 r2969 d4099dd
  37. Encoding settings : cabac=1 / ref=4 / deblock=1:-3:-3 / analyse=0x3:0x133 / me=umh / subme=9 / psy=1 / psy_rd=1.00:0.15 / mixed_ref=1 / me_range=16 / chroma_me=1 / trellis=2 / 8x8dct=1 / cqm=0 / deadzone=21,11 / fast_pskip=0 / chroma_qp_offset=-3 / threads=18 / lookahead_threads=2 / sliced_threads=0 / nr=0 / decimate=1 / interlaced=0 / bluray_compat=0 / constrained_intra=0 / bframes=5 / b_pyramid=2 / b_adapt=2 / b_bias=0 / direct=3 / weightb=1 / open_gop=0 / weightp=2 / keyint=250 / keyint_min=23 / scenecut=40 / intra_refresh=0 / rc_lookahead=60 / rc=crf / mbtree=1 / crf=17.0 / qcomp=0.60 / qpmin=0 / qpmax=69 / qpstep=4 / ip_ratio=1.40 / aq=1:1.00
  38. Default : Yes
  39. Forced : No
  40.  
  41. Audio #1
  42. ID : 2
  43. Format : E-AC-3
  44. Format/Info : Enhanced AC-3
  45. Commercial name : Dolby Digital Plus
  46. Format profile : Blu-ray Disc
  47. Codec ID : A_EAC3
  48. Duration : 1 h 58 min
  49. Bit rate mode : Constant
  50. Bit rate : 1 024 kb/s
  51. Channel(s) : 8 channels
  52. Channel layout : L R C LFE Ls Rs Lb Rb
  53. Sampling rate : 48.0 kHz
  54. Frame rate : 31.250 FPS (1536 SPF)
  55. Compression mode : Lossy
  56. Stream size : 866 MiB (7%)
  57. Title : Dolby Digital Plus 7.1
  58. Language : German
  59. Service kind : Complete Main
  60. Default : Yes
  61. Forced : No
  62.  
  63. Audio #2
  64. ID : 3
  65. Format : AC-3
  66. Format/Info : Audio Coding 3
  67. Commercial name : Dolby Digital
  68. Codec ID : A_AC3
  69. Duration : 1 h 58 min
  70. Bit rate mode : Constant
  71. Bit rate : 576 kb/s
  72. Channel(s) : 6 channels
  73. Channel layout : L R C LFE Ls Rs
  74. Sampling rate : 48.0 kHz
  75. Frame rate : 31.250 FPS (1536 SPF)
  76. Compression mode : Lossy
  77. Stream size : 487 MiB (4%)
  78. Title : Dolby Digital 5.1
  79. Language : German
  80. Service kind : Complete Main
  81. Default : No
  82. Forced : No
  83.  
  84. Text #1
  85. ID : 4
  86. Format : UTF-8
  87. Codec ID : S_TEXT/UTF8
  88. Codec ID/Info : UTF-8 Plain Text
  89. Duration : 4 s 588 ms
  90. Bit rate : 36 b/s
  91. Count of elements : 1
  92. Stream size : 21.0 Bytes (0%)
  93. Title : forced SRT
  94. Language : German
  95. Default : Yes
  96. Forced : Yes
  97.  
  98. Text #2
  99. ID : 5
  100. Format : PGS
  101. Muxing mode : zlib
  102. Codec ID : S_HDMV/PGS
  103. Codec ID/Info : Picture based subtitle format used on BDs/HD-DVDs
  104. Duration : 4 s 588 ms
  105. Bit rate : 29.2 kb/s
  106. Count of elements : 2
  107. Stream size : 16.3 KiB (0%)
  108. Title : forced
  109. Language : German
  110. Default : No
  111. Forced : Yes
  112.  
  113. Text #3
  114. ID : 6
  115. Format : PGS
  116. Muxing mode : zlib
  117. Codec ID : S_HDMV/PGS
  118. Codec ID/Info : Picture based subtitle format used on BDs/HD-DVDs
  119. Duration : 1 h 55 min
  120. Bit rate : 28.9 kb/s
  121. Count of elements : 2850
  122. Stream size : 24.0 MiB (0%)
  123. Title : complete
  124. Language : German
  125. Default : No
  126. Forced : No
  127.  
  128. Menu
  129. 00:00:00.000 : :Kapitel 01
  130. 00:04:50.499 : :Kapitel 02
  131. 00:10:51.067 : :Kapitel 03
  132. 00:17:47.692 : :Kapitel 04
  133. 00:23:53.015 : :Kapitel 05
  134. 00:30:00.132 : :Kapitel 06
  135. 00:33:05.066 : :Kapitel 07
  136. 00:37:09.310 : :Kapitel 08
  137. 00:43:42.912 : :Kapitel 09
  138. 00:50:47.336 : :Kapitel 10
  139. 00:55:02.716 : :Kapitel 11
  140. 00:59:48.460 : :Kapitel 12
  141. 01:06:27.233 : :Kapitel 13
  142. 01:14:32.093 : :Kapitel 14
  143. 01:18:26.410 : :Kapitel 15
  144. 01:23:07.900 : :Kapitel 16
  145. 01:28:04.654 : :Kapitel 17
  146. 01:33:10.877 : :Kapitel 18
  147. 01:37:13.745 : :Kapitel 19
  148. 01:44:39.190 : :Kapitel 20
  149. 01:47:47.336 : :Kapitel 21
RAW Paste Data
We use cookies for various purposes including analytics. By continuing to use Pastebin, you agree to our use of cookies as described in the Cookies Policy. OK, I Understand
Top