daily pastebin goal
12%
SHARE
TWEET

Untitled

a guest Jul 18th, 2018 65 Never
Not a member of Pastebin yet? Sign Up, it unlocks many cool features!
  1. --enable-libschroedinger --enable-libspeex --enable-libtheora --enable-libvorbis --enable-pthreads --enable-zlib --disable-stripping --disable-vhook --enable-gpl --enable-postproc --enable-swscale --enable-x11grab --enable-libdc1394 --extra-cflags=-I/build/buildd/ffmpeg-0.5+svn20090706/debian/include --enable-shared --disable-static
  2.   libavutil     49.15. 0 / 49.15. 0
  3.   libavcodec    52.20. 0 / 52.20. 0
  4.   libavformat   52.31. 0 / 52.31. 0
  5.   libavdevice   52. 1. 0 / 52. 1. 0
  6.   libavfilter    0. 4. 0 /  0. 4. 0
  7.   libswscale     0. 7. 1 /  0. 7. 1
  8.   libpostproc   51. 2. 0 / 51. 2. 0
  9.   built on Oct 13 2009 22:15:16, gcc: 4.4.1
  10.  
  11. Seems stream 0 codec frame rate differs from container frame rate: 50.00 (50/1) -> 25.00 (25/1)
  12. Input #0, flv, from '/home/sunny/Desktop/video.flv':
  13.   Duration: 00:05:21.27, start: 0.000000, bitrate: 227 kb/s
  14.     Stream #0.0: Video: h264, yuv420p, 320x240 [PAR 1:1 DAR 4:3], 227 kb/s, 25 tbr, 1k tbn, 50 tbc
  15.     Stream #0.1: Audio: aac, 22050 Hz, stereo, s16
  16. Unknown encoder 'libx264'
RAW Paste Data
We use cookies for various purposes including analytics. By continuing to use Pastebin, you agree to our use of cookies as described in the Cookies Policy. OK, I Understand
 
Top