Guest User

Untitled

a guest
Jun 2nd, 2020
32
Never
Not a member of Pastebin yet? Sign Up, it unlocks many cool features!
  1. General
  2. Unique ID : 244920810893023219093471939753542646981 (0xB84208496AA33310D785FE6B167F7CC5)
  3. Complete name : George of the Jungle (1997).1080p.mkv
  4. Format : Matroska
  5. Format version : Version 4 / Version 2
  6. File size : 12.6 GiB
  7. Duration : 1 h 31 min
  8. Overall bit rate : 19.7 Mb/s
  9. Movie name : George of the Jungle (1997).BDRip.1080p
  10. Encoded date : UTC 2020-05-15 11:36:59
  11. Writing application : mkvmerge v34.0.0 ('Sight and Seen') 64-bit
  12. Writing library : libebml v1.3.7 + libmatroska v1.5.0
  13.  
  14. Video
  15. ID : 1
  16. Format : AVC
  17. Format/Info : Advanced Video Codec
  18. Format profile : High@L4.1
  19. Format settings, CABAC : Yes
  20. Format settings, RefFrames : 4 frames
  21. Codec ID : V_MPEG4/ISO/AVC
  22. Duration : 1 h 31 min
  23. Bit rate : 17.2 Mb/s
  24. Width : 1 920 pixels
  25. Height : 1 038 pixels
  26. Display aspect ratio : 1.85:1
  27. Frame rate mode : Constant
  28. Frame rate : 23.976 (24000/1001) FPS
  29. Color space : YUV
  30. Chroma subsampling : 4:2:0
  31. Bit depth : 8 bits
  32. Scan type : Progressive
  33. Bits/(Pixel*Frame) : 0.361
  34. Stream size : 11.0 GiB (87%)
  35. Title : George of the Jungle (1997).BDRip.1080p
  36. Writing library : x264 core 159 r2991 1771b55
  37. Encoding settings : cabac=1 / ref=4 / deblock=1:-3:-3 / analyse=0x3:0x133 / me=umh / subme=11 / psy=1 / psy_rd=1.00:0.05 / mixed_ref=1 / me_range=32 / chroma_me=1 / trellis=2 / 8x8dct=1 / cqm=0 / deadzone=21,11 / fast_pskip=0 / chroma_qp_offset=-3 / threads=12 / lookahead_threads=2 / sliced_threads=0 / nr=0 / decimate=1 / interlaced=0 / bluray_compat=0 / constrained_intra=0 / bframes=9 / b_pyramid=2 / b_adapt=2 / b_bias=0 / direct=3 / weightb=1 / open_gop=0 / weightp=2 / keyint=250 / keyint_min=23 / scenecut=40 / intra_refresh=0 / rc_lookahead=60 / rc=crf / mbtree=0 / crf=18.1 / qcomp=0.60 / qpmin=0 / qpmax=69 / qpstep=4 / vbv_maxrate=50000 / vbv_bufsize=62500 / crf_max=0.0 / nal_hrd=none / filler=0 / ip_ratio=1.40 / pb_ratio=1.30 / aq=3:0.90
  38. Language : English
  39. Default : Yes
  40. Forced : No
  41.  
  42. Audio #1
  43. ID : 2
  44. Format : AC-3
  45. Format/Info : Audio Coding 3
  46. Format settings, Endianness : Big
  47. Codec ID : A_AC3
  48. Duration : 1 h 31 min
  49. Bit rate mode : Constant
  50. Bit rate : 448 kb/s
  51. Channel(s) : 6 channels
  52. Channel positions : Front: L C R, Side: L R, LFE
  53. Sampling rate : 48.0 kHz
  54. Frame rate : 31.250 FPS (1536 SPF)
  55. Bit depth : 16 bits
  56. Compression mode : Lossy
  57. Stream size : 294 MiB (2%)
  58. Title : MVO [Позитив]
  59. Language : Russian
  60. Service kind : Complete Main
  61. Default : Yes
  62. Forced : No
  63.  
  64. Audio #2
  65. ID : 3
  66. Format : AAC
  67. Format/Info : Advanced Audio Codec
  68. Format profile : LC
  69. Codec ID : A_AAC
  70. Duration : 1 h 31 min
  71. Bit rate : 123 kb/s
  72. Channel(s) : 2 channels
  73. Channel positions : Front: L R
  74. Sampling rate : 48.0 kHz
  75. Frame rate : 46.875 FPS (1024 SPF)
  76. Compression mode : Lossy
  77. Stream size : 80.8 MiB (1%)
  78. Title : MVO (iTunes, СТС/ОРТ)
  79. Language : Russian
  80. Default : No
  81. Forced : No
  82.  
  83. Audio #3
  84. ID : 4
  85. Format : AC-3
  86. Format/Info : Audio Coding 3
  87. Format settings, Endianness : Big
  88. Codec ID : A_AC3
  89. Duration : 1 h 31 min
  90. Bit rate mode : Constant
  91. Bit rate : 192 kb/s
  92. Channel(s) : 2 channels
  93. Channel positions : Front: L R
  94. Sampling rate : 48.0 kHz
  95. Frame rate : 31.250 FPS (1536 SPF)
  96. Bit depth : 16 bits
  97. Compression mode : Lossy
  98. Stream size : 126 MiB (1%)
  99. Title : MVO [Видеосервис]
  100. Language : Russian
  101. Service kind : Complete Main
  102. Default : No
  103. Forced : No
  104.  
  105. Audio #4
  106. ID : 5
  107. Format : AC-3
  108. Format/Info : Audio Coding 3
  109. Format settings, Endianness : Big
  110. Codec ID : A_AC3
  111. Duration : 1 h 31 min
  112. Bit rate mode : Constant
  113. Bit rate : 192 kb/s
  114. Channel(s) : 2 channels
  115. Channel positions : Front: L R
  116. Sampling rate : 48.0 kHz
  117. Frame rate : 31.250 FPS (1536 SPF)
  118. Bit depth : 16 bits
  119. Compression mode : Lossy
  120. Stream size : 126 MiB (1%)
  121. Title : AVO (Сергей Визгунов)
  122. Language : Russian
  123. Service kind : Complete Main
  124. Default : No
  125. Forced : No
  126.  
  127. Audio #5
  128. ID : 6
  129. Format : DTS
  130. Format/Info : Digital Theater Systems
  131. Mode : 16
  132. Format settings, Endianness : Big
  133. Codec ID : A_DTS
  134. Duration : 1 h 31 min
  135. Bit rate mode : Constant
  136. Bit rate : 1 509 kb/s
  137. Channel(s) : 6 channels
  138. Channel positions : Front: L C R, Side: L R, LFE
  139. Sampling rate : 48.0 kHz
  140. Frame rate : 93.750 FPS (512 SPF)
  141. Bit depth : 24 bits
  142. Compression mode : Lossy
  143. Stream size : 992 MiB (8%)
  144. Title : Original
  145. Language : English
  146. Default : No
  147. Forced : No
  148.  
  149. Text #1
  150. ID : 7
  151. Format : UTF-8
  152. Codec ID : S_TEXT/UTF8
  153. Codec ID/Info : UTF-8 Plain Text
  154. Duration : 1 h 27 min
  155. Bit rate : 99 b/s
  156. Count of elements : 1085
  157. Stream size : 63.3 KiB (0%)
  158. Title : Full
  159. Language : Russian
  160. Default : No
  161. Forced : No
  162.  
  163. Text #2
  164. ID : 8
  165. Format : UTF-8
  166. Codec ID : S_TEXT/UTF8
  167. Codec ID/Info : UTF-8 Plain Text
  168. Duration : 1 h 31 min
  169. Bit rate : 65 b/s
  170. Count of elements : 1212
  171. Stream size : 43.7 KiB (0%)
  172. Title : Full
  173. Language : English
  174. Default : No
  175. Forced : No
  176.  
  177. Text #3
  178. ID : 9
  179. Format : UTF-8
  180. Codec ID : S_TEXT/UTF8
  181. Codec ID/Info : UTF-8 Plain Text
  182. Duration : 1 h 31 min
  183. Bit rate : 77 b/s
  184. Count of elements : 1461
  185. Stream size : 52.1 KiB (0%)
  186. Title : SDH
  187. Language : English
  188. Default : No
  189. Forced : No
  190.  
  191. Menu
  192. 00:00:00.000 : en:Chapter 01
  193. 00:00:26.068 : en:Chapter 02
  194. 00:04:59.341 : en:Chapter 03
  195. 00:11:05.999 : en:Chapter 04
  196. 00:20:03.911 : en:Chapter 05
  197. 00:23:23.527 : en:Chapter 06
  198. 00:28:38.759 : en:Chapter 07
  199. 00:29:47.119 : en:Chapter 08
  200. 00:34:26.648 : en:Chapter 09
  201. 00:43:10.338 : en:Chapter 10
  202. 00:45:29.060 : en:Chapter 11
  203. 00:50:02.833 : en:Chapter 12
  204. 00:51:28.752 : en:Chapter 13
  205. 00:55:18.857 : en:Chapter 14
  206. 00:56:54.703 : en:Chapter 15
  207. 01:05:03.566 : en:Chapter 16
  208. 01:15:46.208 : en:Chapter 17
  209. 01:22:07.214 : en:Chapter 18
  210. 01:25:06.351 : en:Chapter 19
RAW Paste Data