iMN0

West.Side.Story.1961.BluRay.1080p.DTS-HD.MA.7.1.AVC.REMUX-FraMeSToR

Jul 11th, 2021
72
Never
Not a member of Pastebin yet? Sign Up, it unlocks many cool features!
  1. General
  2. Unique ID : 215178817227935179678146831127154238846 (0xA1E1EEC8AF5F68098B81612CD3B7A57E)
  3. Complete name : West.Side.Story.1961.BluRay.1080p.DTS-HD.MA.7.1.AVC.REMUX-FraMeSToR.mkv
  4. Format : Matroska
  5. Format version : Version 4
  6. File size : 31.7 GiB
  7. Duration : 2 h 33 min
  8. Overall bit rate mode : Variable
  9. Overall bit rate : 29.5 Mb/s
  10. Movie name : West Side Story (1961)
  11. Encoded date : UTC 2018-12-04 03:19:14
  12. Writing application : mkvmerge v16.0.0 ('Protest') 64-bit
  13. Writing library : libebml v1.3.5 + libmatroska v1.4.8
  14.  
  15. Video
  16. ID : 1
  17. Format : AVC
  18. Format/Info : Advanced Video Codec
  19. Format profile : High@L4.1
  20. Format settings : CABAC / 4 Ref Frames
  21. Format settings, CABAC : Yes
  22. Format settings, Reference frames : 4 frames
  23. Codec ID : V_MPEG4/ISO/AVC
  24. Duration : 2 h 33 min
  25. Bit rate mode : Variable
  26. Bit rate : 23.2 Mb/s
  27. Maximum bit rate : 32.0 Mb/s
  28. Width : 1 920 pixels
  29. Height : 1 080 pixels
  30. Display aspect ratio : 16:9
  31. Frame rate mode : Constant
  32. Frame rate : 23.976 (24000/1001) FPS
  33. Color space : YUV
  34. Chroma subsampling : 4:2:0
  35. Bit depth : 8 bits
  36. Scan type : Progressive
  37. Bits/(Pixel*Frame) : 0.467
  38. Stream size : 24.9 GiB (79%)
  39. Default : Yes
  40. Forced : No
  41.  
  42. Audio #1
  43. ID : 2
  44. Format : DTS XLL
  45. Format/Info : Digital Theater Systems
  46. Commercial name : DTS-HD Master Audio
  47. Codec ID : A_DTS
  48. Duration : 2 h 33 min
  49. Bit rate mode : Variable
  50. Bit rate : 5 019 kb/s
  51. Channel(s) : 8 channels
  52. Channel layout : C L R LFE Lb Rb Lss Rss
  53. Sampling rate : 48.0 kHz
  54. Frame rate : 93.750 FPS (512 SPF)
  55. Bit depth : 24 bits
  56. Compression mode : Lossless
  57. Stream size : 5.39 GiB (17%)
  58. Title : DTS-HE MA 7.1
  59. Language : English
  60. Default : Yes
  61. Forced : No
  62.  
  63. Audio #2
  64. ID : 3
  65. Format : AC-3
  66. Format/Info : Audio Coding 3
  67. Commercial name : Dolby Digital
  68. Codec ID : A_AC3
  69. Duration : 2 h 33 min
  70. Bit rate mode : Constant
  71. Bit rate : 224 kb/s
  72. Channel(s) : 2 channels
  73. Channel layout : L R
  74. Sampling rate : 48.0 kHz
  75. Frame rate : 31.250 FPS (1536 SPF)
  76. Compression mode : Lossy
  77. Stream size : 246 MiB (1%)
  78. Title : Commentary by Lyricist Stephen Sondheim
  79. Language : English
  80. Service kind : Complete Main
  81. Default : No
  82. Forced : No
  83.  
  84. Text #1
  85. ID : 4
  86. Format : PGS
  87. Codec ID : S_HDMV/PGS
  88. Codec ID/Info : Picture based subtitle format used on BDs/HD-DVDs
  89. Duration : 2 h 28 min
  90. Bit rate : 35.3 kb/s
  91. Count of elements : 4578
  92. Stream size : 37.5 MiB (0%)
  93. Title : English (SDH)
  94. Language : English
  95. Default : No
  96. Forced : No
  97.  
  98. Text #2
  99. ID : 5
  100. Format : PGS
  101. Codec ID : S_HDMV/PGS
  102. Codec ID/Info : Picture based subtitle format used on BDs/HD-DVDs
  103. Duration : 2 h 33 min
  104. Bit rate : 24.3 kb/s
  105. Count of elements : 3094
  106. Stream size : 26.7 MiB (0%)
  107. Title : Chinese (Cantonese)
  108. Language : Chinese
  109. Default : No
  110. Forced : No
  111.  
  112. Text #3
  113. ID : 6
  114. Format : PGS
  115. Codec ID : S_HDMV/PGS
  116. Codec ID/Info : Picture based subtitle format used on BDs/HD-DVDs
  117. Duration : 2 h 33 min
  118. Bit rate : 24.6 kb/s
  119. Count of elements : 3664
  120. Stream size : 27.0 MiB (0%)
  121. Title : Chinese (Simplified)
  122. Language : Chinese
  123. Default : No
  124. Forced : No
  125.  
  126. Text #4
  127. ID : 7
  128. Format : PGS
  129. Codec ID : S_HDMV/PGS
  130. Codec ID/Info : Picture based subtitle format used on BDs/HD-DVDs
  131. Duration : 2 h 28 min
  132. Bit rate : 23.6 kb/s
  133. Count of elements : 3096
  134. Stream size : 25.1 MiB (0%)
  135. Title : Chinese (Traditional)
  136. Language : Chinese
  137. Default : No
  138. Forced : No
  139.  
  140. Text #5
  141. ID : 8
  142. Format : PGS
  143. Codec ID : S_HDMV/PGS
  144. Codec ID/Info : Picture based subtitle format used on BDs/HD-DVDs
  145. Duration : 2 h 33 min
  146. Bit rate : 33.0 kb/s
  147. Count of elements : 3775
  148. Stream size : 36.3 MiB (0%)
  149. Title : Danish
  150. Language : Danish
  151. Default : No
  152. Forced : No
  153.  
  154. Text #6
  155. ID : 9
  156. Format : PGS
  157. Codec ID : S_HDMV/PGS
  158. Codec ID/Info : Picture based subtitle format used on BDs/HD-DVDs
  159. Duration : 2 h 33 min
  160. Bit rate : 22.8 kb/s
  161. Count of elements : 2532
  162. Stream size : 25.1 MiB (0%)
  163. Title : Dutch
  164. Language : Dutch
  165. Default : No
  166. Forced : No
  167.  
  168. Text #7
  169. ID : 10
  170. Format : PGS
  171. Codec ID : S_HDMV/PGS
  172. Codec ID/Info : Picture based subtitle format used on BDs/HD-DVDs
  173. Duration : 2 h 33 min
  174. Bit rate : 22.3 kb/s
  175. Count of elements : 2304
  176. Stream size : 24.5 MiB (0%)
  177. Title : Finnish
  178. Language : Finnish
  179. Default : No
  180. Forced : No
  181.  
  182. Text #8
  183. ID : 11
  184. Format : PGS
  185. Codec ID : S_HDMV/PGS
  186. Codec ID/Info : Picture based subtitle format used on BDs/HD-DVDs
  187. Duration : 2 h 28 min
  188. Bit rate : 29.3 kb/s
  189. Count of elements : 3584
  190. Stream size : 31.2 MiB (0%)
  191. Title : French
  192. Language : French
  193. Default : No
  194. Forced : No
  195.  
  196. Text #9
  197. ID : 12
  198. Format : PGS
  199. Codec ID : S_HDMV/PGS
  200. Codec ID/Info : Picture based subtitle format used on BDs/HD-DVDs
  201. Duration : 2 h 33 min
  202. Bit rate : 29.2 kb/s
  203. Count of elements : 3225
  204. Stream size : 32.2 MiB (0%)
  205. Title : German
  206. Language : German
  207. Default : No
  208. Forced : No
  209.  
  210. Text #10
  211. ID : 13
  212. Format : PGS
  213. Codec ID : S_HDMV/PGS
  214. Codec ID/Info : Picture based subtitle format used on BDs/HD-DVDs
  215. Duration : 2 h 33 min
  216. Bit rate : 17.0 kb/s
  217. Count of elements : 2694
  218. Stream size : 18.6 MiB (0%)
  219. Title : Hebrew
  220. Language : Hebrew
  221. Default : No
  222. Forced : No
  223.  
  224. Text #11
  225. ID : 14
  226. Format : PGS
  227. Codec ID : S_HDMV/PGS
  228. Codec ID/Info : Picture based subtitle format used on BDs/HD-DVDs
  229. Duration : 2 h 33 min
  230. Bit rate : 25.0 kb/s
  231. Count of elements : 2684
  232. Stream size : 27.5 MiB (0%)
  233. Title : Hungarian
  234. Language : Hungarian
  235. Default : No
  236. Forced : No
  237.  
  238. Text #12
  239. ID : 15
  240. Format : PGS
  241. Codec ID : S_HDMV/PGS
  242. Codec ID/Info : Picture based subtitle format used on BDs/HD-DVDs
  243. Duration : 2 h 33 min
  244. Bit rate : 26.3 kb/s
  245. Count of elements : 2687
  246. Stream size : 28.9 MiB (0%)
  247. Title : Italian
  248. Language : Italian
  249. Default : No
  250. Forced : No
  251.  
  252. Text #13
  253. ID : 16
  254. Format : PGS
  255. Codec ID : S_HDMV/PGS
  256. Codec ID/Info : Picture based subtitle format used on BDs/HD-DVDs
  257. Duration : 2 h 26 min
  258. Bit rate : 16.6 kb/s
  259. Count of elements : 3059
  260. Stream size : 17.4 MiB (0%)
  261. Title : Japanese
  262. Language : Japanese
  263. Default : No
  264. Forced : No
  265.  
  266. Text #14
  267. ID : 17
  268. Format : PGS
  269. Codec ID : S_HDMV/PGS
  270. Codec ID/Info : Picture based subtitle format used on BDs/HD-DVDs
  271. Duration : 2 h 23 min
  272. Bit rate : 7 811 b/s
  273. Count of elements : 1208
  274. Stream size : 8.00 MiB (0%)
  275. Title : Japanese (Forced)
  276. Language : Japanese
  277. Default : No
  278. Forced : No
  279.  
  280. Text #15
  281. ID : 18
  282. Format : PGS
  283. Codec ID : S_HDMV/PGS
  284. Codec ID/Info : Picture based subtitle format used on BDs/HD-DVDs
  285. Duration : 2 h 28 min
  286. Bit rate : 19.6 kb/s
  287. Count of elements : 3198
  288. Stream size : 20.9 MiB (0%)
  289. Title : Korean
  290. Language : Korean
  291. Default : No
  292. Forced : No
  293.  
  294. Text #16
  295. ID : 19
  296. Format : PGS
  297. Codec ID : S_HDMV/PGS
  298. Codec ID/Info : Picture based subtitle format used on BDs/HD-DVDs
  299. Duration : 2 h 33 min
  300. Bit rate : 27.0 kb/s
  301. Count of elements : 2688
  302. Stream size : 29.6 MiB (0%)
  303. Title : Modern Greek
  304. Language : Greek
  305. Default : No
  306. Forced : No
  307.  
  308. Text #17
  309. ID : 20
  310. Format : PGS
  311. Codec ID : S_HDMV/PGS
  312. Codec ID/Info : Picture based subtitle format used on BDs/HD-DVDs
  313. Duration : 2 h 33 min
  314. Bit rate : 22.6 kb/s
  315. Count of elements : 2667
  316. Stream size : 24.9 MiB (0%)
  317. Title : Norwegian
  318. Language : Norwegian
  319. Default : No
  320. Forced : No
  321.  
  322. Text #18
  323. ID : 21
  324. Format : PGS
  325. Codec ID : S_HDMV/PGS
  326. Codec ID/Info : Picture based subtitle format used on BDs/HD-DVDs
  327. Duration : 2 h 33 min
  328. Bit rate : 22.5 kb/s
  329. Count of elements : 3116
  330. Stream size : 24.7 MiB (0%)
  331. Title : Polish
  332. Language : Polish
  333. Default : No
  334. Forced : No
  335.  
  336. Text #19
  337. ID : 22
  338. Format : PGS
  339. Codec ID : S_HDMV/PGS
  340. Codec ID/Info : Picture based subtitle format used on BDs/HD-DVDs
  341. Duration : 2 h 28 min
  342. Bit rate : 30.2 kb/s
  343. Count of elements : 3104
  344. Stream size : 32.1 MiB (0%)
  345. Title : Portuguese (Brazilian)
  346. Language : Portuguese
  347. Default : No
  348. Forced : No
  349.  
  350. Text #20
  351. ID : 23
  352. Format : PGS
  353. Codec ID : S_HDMV/PGS
  354. Codec ID/Info : Picture based subtitle format used on BDs/HD-DVDs
  355. Duration : 2 h 33 min
  356. Bit rate : 24.8 kb/s
  357. Count of elements : 2660
  358. Stream size : 27.3 MiB (0%)
  359. Title : Portuguese
  360. Language : Portuguese
  361. Default : No
  362. Forced : No
  363.  
  364. Text #21
  365. ID : 24
  366. Format : PGS
  367. Codec ID : S_HDMV/PGS
  368. Codec ID/Info : Picture based subtitle format used on BDs/HD-DVDs
  369. Duration : 2 h 33 min
  370. Bit rate : 30.5 kb/s
  371. Count of elements : 3664
  372. Stream size : 33.6 MiB (0%)
  373. Title : Russian
  374. Language : Russian
  375. Default : No
  376. Forced : No
  377.  
  378. Text #22
  379. ID : 25
  380. Format : PGS
  381. Codec ID : S_HDMV/PGS
  382. Codec ID/Info : Picture based subtitle format used on BDs/HD-DVDs
  383. Duration : 2 h 33 min
  384. Bit rate : 25.1 kb/s
  385. Count of elements : 2669
  386. Stream size : 27.6 MiB (0%)
  387. Title : Spanish (Castilian)
  388. Language : Spanish
  389. Default : No
  390. Forced : No
  391.  
  392. Text #23
  393. ID : 26
  394. Format : PGS
  395. Codec ID : S_HDMV/PGS
  396. Codec ID/Info : Picture based subtitle format used on BDs/HD-DVDs
  397. Duration : 2 h 28 min
  398. Bit rate : 29.9 kb/s
  399. Count of elements : 3494
  400. Stream size : 31.9 MiB (0%)
  401. Title : Spanish (Latin American)
  402. Language : Spanish
  403. Default : No
  404. Forced : No
  405.  
  406. Text #24
  407. ID : 27
  408. Format : PGS
  409. Codec ID : S_HDMV/PGS
  410. Codec ID/Info : Picture based subtitle format used on BDs/HD-DVDs
  411. Duration : 2 h 33 min
  412. Bit rate : 25.0 kb/s
  413. Count of elements : 2681
  414. Stream size : 27.5 MiB (0%)
  415. Title : Swedish
  416. Language : Swedish
  417. Default : No
  418. Forced : No
  419.  
  420. Text #25
  421. ID : 28
  422. Format : PGS
  423. Codec ID : S_HDMV/PGS
  424. Codec ID/Info : Picture based subtitle format used on BDs/HD-DVDs
  425. Duration : 2 h 28 min
  426. Bit rate : 22.3 kb/s
  427. Count of elements : 3094
  428. Stream size : 23.7 MiB (0%)
  429. Title : Thai
  430. Language : tai
  431. Default : No
  432. Forced : No
  433.  
  434. Text #26
  435. ID : 29
  436. Format : PGS
  437. Codec ID : S_HDMV/PGS
  438. Codec ID/Info : Picture based subtitle format used on BDs/HD-DVDs
  439. Duration : 2 h 33 min
  440. Bit rate : 24.2 kb/s
  441. Count of elements : 2688
  442. Stream size : 26.6 MiB (0%)
  443. Title : Turkish
  444. Language : Turkish
  445. Default : No
  446. Forced : No
  447.  
  448. Text #27
  449. ID : 30
  450. Format : PGS
  451. Codec ID : S_HDMV/PGS
  452. Codec ID/Info : Picture based subtitle format used on BDs/HD-DVDs
  453. Duration : 2 h 28 min
  454. Bit rate : 39.9 kb/s
  455. Count of elements : 4129
  456. Stream size : 42.4 MiB (0%)
  457. Title : English (SDH) (Commentary)
  458. Language : English
  459. Default : No
  460. Forced : No
  461.  
  462. Text #28
  463. ID : 31
  464. Format : PGS
  465. Codec ID : S_HDMV/PGS
  466. Codec ID/Info : Picture based subtitle format used on BDs/HD-DVDs
  467. Duration : 2 h 33 min
  468. Bit rate : 28.1 kb/s
  469. Count of elements : 3789
  470. Stream size : 30.9 MiB (0%)
  471. Title : Chinese (Simplified) (Commentary)
  472. Language : Chinese
  473. Default : No
  474. Forced : No
  475.  
  476. Text #29
  477. ID : 32
  478. Format : PGS
  479. Codec ID : S_HDMV/PGS
  480. Codec ID/Info : Picture based subtitle format used on BDs/HD-DVDs
  481. Duration : 2 h 33 min
  482. Bit rate : 31.3 kb/s
  483. Count of elements : 3775
  484. Stream size : 34.4 MiB (0%)
  485. Title : Dutch (Commentary)
  486. Language : Dutch
  487. Default : No
  488. Forced : No
  489.  
  490. Text #30
  491. ID : 33
  492. Format : PGS
  493. Codec ID : S_HDMV/PGS
  494. Codec ID/Info : Picture based subtitle format used on BDs/HD-DVDs
  495. Duration : 2 h 33 min
  496. Bit rate : 29.5 kb/s
  497. Count of elements : 3777
  498. Stream size : 32.5 MiB (0%)
  499. Title : Finnish (Commentary)
  500. Language : Finnish
  501. Default : No
  502. Forced : No
  503.  
  504. Text #31
  505. ID : 34
  506. Format : PGS
  507. Codec ID : S_HDMV/PGS
  508. Codec ID/Info : Picture based subtitle format used on BDs/HD-DVDs
  509. Duration : 2 h 33 min
  510. Bit rate : 34.3 kb/s
  511. Count of elements : 3795
  512. Stream size : 37.7 MiB (0%)
  513. Title : French (Commentary)
  514. Language : French
  515. Default : No
  516. Forced : No
  517.  
  518. Text #32
  519. ID : 35
  520. Format : PGS
  521. Codec ID : S_HDMV/PGS
  522. Codec ID/Info : Picture based subtitle format used on BDs/HD-DVDs
  523. Duration : 2 h 33 min
  524. Bit rate : 35.8 kb/s
  525. Count of elements : 3775
  526. Stream size : 39.3 MiB (0%)
  527. Title : German (Commentary)
  528. Language : German
  529. Default : No
  530. Forced : No
  531.  
  532. Text #33
  533. ID : 36
  534. Format : PGS
  535. Codec ID : S_HDMV/PGS
  536. Codec ID/Info : Picture based subtitle format used on BDs/HD-DVDs
  537. Duration : 2 h 33 min
  538. Bit rate : 34.0 kb/s
  539. Count of elements : 3767
  540. Stream size : 37.4 MiB (0%)
  541. Title : Italian (Commentary)
  542. Language : Italian
  543. Default : No
  544. Forced : No
  545.  
  546. Text #34
  547. ID : 37
  548. Format : PGS
  549. Codec ID : S_HDMV/PGS
  550. Codec ID/Info : Picture based subtitle format used on BDs/HD-DVDs
  551. Duration : 2 h 28 min
  552. Bit rate : 23.0 kb/s
  553. Count of elements : 3789
  554. Stream size : 24.5 MiB (0%)
  555. Title : Korean (Commentary)
  556. Language : Spanish
  557. Default : No
  558. Forced : No
  559.  
  560. Text #35
  561. ID : 38
  562. Format : PGS
  563. Codec ID : S_HDMV/PGS
  564. Codec ID/Info : Picture based subtitle format used on BDs/HD-DVDs
  565. Duration : 2 h 33 min
  566. Bit rate : 31.2 kb/s
  567. Count of elements : 3791
  568. Stream size : 34.3 MiB (0%)
  569. Title : Norwegian (Commentary)
  570. Language : Norwegian
  571. Default : No
  572. Forced : No
  573.  
  574. Text #36
  575. ID : 39
  576. Format : PGS
  577. Codec ID : S_HDMV/PGS
  578. Codec ID/Info : Picture based subtitle format used on BDs/HD-DVDs
  579. Duration : 2 h 33 min
  580. Bit rate : 35.7 kb/s
  581. Count of elements : 3791
  582. Stream size : 39.3 MiB (0%)
  583. Title : Russian (Commentary)
  584. Language : Russian
  585. Default : No
  586. Forced : No
  587.  
  588. Text #37
  589. ID : 40
  590. Format : PGS
  591. Codec ID : S_HDMV/PGS
  592. Codec ID/Info : Picture based subtitle format used on BDs/HD-DVDs
  593. Duration : 2 h 33 min
  594. Bit rate : 33.6 kb/s
  595. Count of elements : 3777
  596. Stream size : 36.9 MiB (0%)
  597. Title : Spanish (Castilian) (Commentary)
  598. Language : Spanish
  599. Default : No
  600. Forced : No
  601.  
  602. Text #38
  603. ID : 41
  604. Format : PGS
  605. Codec ID : S_HDMV/PGS
  606. Codec ID/Info : Picture based subtitle format used on BDs/HD-DVDs
  607. Duration : 2 h 33 min
  608. Bit rate : 33.2 kb/s
  609. Count of elements : 3791
  610. Stream size : 36.5 MiB (0%)
  611. Title : Swedish (Commentary)
  612. Language : Swedish
  613. Default : No
  614. Forced : No
  615.  
  616. Menu
  617. 00:00:00.000 : en:Overture/Main Title
  618. 00:05:02.051 : en:Prologue
  619. 00:14:54.101 : en:Snowing the Coppers
  620. 00:17:41.101 : en:How to Hold Turf/Jet Song
  621. 00:23:02.589 : en:Something's Coming
  622. 00:28:50.770 : en:Not Giving an Inch
  623. 00:31:47.322 : en:Dance at the Gym
  624. 00:39:07.803 : en:Love Across the Lines
  625. 00:42:53.070 : en:Riff's Challenge
  626. 00:44:16.070 : en:Maria
  627. 00:46:56.980 : en:America
  628. 00:54:27.973 : en:"I Don't Wait"
  629. 00:56:01.608 : en:Tonight
  630. 01:03:03.571 : en:Gee, Officer Krupke!
  631. 01:10:29.224 : en:The War Council
  632. 01:15:20.224 : en:Sweet Land of Liberty
  633. 01:22:54.552 : en:I Feel Pretty
  634. 01:26:27.682 : en:What Anita Can't See
  635. 01:29:12.972 : en:One Hand, One Heart
  636. 01:34:57.233 : en:Tonight (Ensemble)
  637. 01:38:16.849 : en:The Rumble
  638. 01:46:30.592 : en:Breaking the News
  639. 01:49:32.399 : en:Somewhere
  640. 01:53:11.159 : en:"I'm Scared"
  641. 01:55:08.526 : en:Cool
  642. 02:02:40.936 : en:Gotta Find Tony
  643. 02:04:38.262 : en:A Boy Like That/I Have a Love
  644. 02:11:22.416 : en:Detaining Maria
  645. 02:13:12.734 : en:Anita's Message
  646. 02:18:04.275 : en:No Cure From Doc
  647. 02:20:09.067 : en:Finale
  648. 02:28:34.697 : en:End Credits
RAW Paste Data