SHARE
TWEET

Shiropoint - Pinkie Pie's Party Cannon Part Two CUE sheet

Photon_Man62 Sep 3rd, 2014 341 Never
Not a member of Pastebin yet? Sign Up, it unlocks many cool features!
  1. PERFORMER ""
  2. TITLE ""
  3. FILE ".mp3" MP3
  4.   TRACK 01 AUDIO
  5.     TITLE "01. Ashleigh Ball & Andrea Libman - Pinkie Wants A Flugelhorn"
  6.     INDEX 01 00:00:00
  7.   TRACK 02 AUDIO
  8.     TITLE "02. London Elektricity - All Hell Is Breaking Loose"
  9.     INDEX 01 00:10:00
  10.   TRACK 03 AUDIO
  11.     TITLE "03. Ant To Be & Digital Twist - L'amour"
  12.     INDEX 01 04:25:00
  13.   TRACK 04 AUDIO
  14.     TITLE "04. Nu:tone - Kitsch 'n' Sync"
  15.     INDEX 01 07:45:00
  16.   TRACK 05 AUDIO
  17.     TITLE "05. Tomahawk - Until Dawn"
  18.     INDEX 01 10:20:00
  19.   TRACK 06 AUDIO
  20.     TITLE "06. Cyantific - Cover Story"
  21.     INDEX 01 13:18:00
  22.   TRACK 07 AUDIO
  23.     TITLE "07. Netsky - Moving With You"
  24.     INDEX 01 17:52:00
  25.   TRACK 08 AUDIO
  26.     TITLE "08. Livewire - Liquid"
  27.     INDEX 01 21:37:00
  28.   TRACK 09 AUDIO
  29.     TITLE "09. Syncopix - Nightlistener"
  30.     INDEX 01 24:35:00
  31.   TRACK 10 AUDIO
  32.     TITLE "10. Mrsa - Different"
  33.     INDEX 01 28:50:00
  34.   TRACK 11 AUDIO
  35.     TITLE "11. Bachelors of Science - Sugar"
  36.     INDEX 01 33:39:00
  37.   TRACK 12 AUDIO
  38.     TITLE "12. High Contast - Return of Forever (Klute Remix)"
  39.     INDEX 01 38:24:00
  40.   TRACK 13 AUDIO
  41.     TITLE "13. Adam Freeland - Mindkiller (Origin Unknown Remix)"
  42.     INDEX 01 42:31:00
  43.   TRACK 14 AUDIO
  44.     TITLE "14. Danny Byrd Ft I-Kay - Ill Behaviour"
  45.     INDEX 01 46:47:00
  46.   TRACK 15 AUDIO
  47.     TITLE "15. Agent Alvin - Moonlight Bay"
  48.     INDEX 01 50:26:00
  49.   TRACK 16 AUDIO
  50.     TITLE "16. Medicin - Stop I Can't Dance Anymore"
  51.     INDEX 01 52:39:00
  52.   TRACK 17 AUDIO
  53.     TITLE "17. Shock One Ft. Reija Lee - Polygon (Dirtyphonics Remix)"
  54.     INDEX 01 56:02:00
RAW Paste Data
We use cookies for various purposes including analytics. By continuing to use Pastebin, you agree to our use of cookies as described in the Cookies Policy. OK, I Understand
Top