Henry_Kr

SP-S01

Oct 3rd, 2019
134
Never
Not a member of Pastebin yet? Sign Up, it unlocks many cool features!
  1. Video
  2. ID : 1
  3. Format : AVC
  4. Format/Info : Advanced Video Codec
  5. Format profile : Main@L4
  6. Format settings : CABAC / 3 Ref Frames
  7. Format settings, CABAC : Yes
  8. Format settings, Reference : 3 frames
  9. Codec ID : V_MPEG4/ISO/AVC
  10. Duration : 27 min 15 s
  11. Bit rate mode : Variable
  12. Bit rate : 6 190 kb/s
  13. Maximum bit rate : 9 285 kb/s
  14. Width : 1 920 pixels
  15. Height : 1 080 pixels
  16. Display aspect ratio : 16:9
  17. Frame rate mode : Constant
  18. Frame rate : 23.976 (24000/1001) FPS
  19. Color space : YUV
  20. Chroma subsampling : 4:2:0
  21. Bit depth : 8 bits
  22. Scan type : Progressive
  23. Bits/(Pixel*Frame) : 0.125
  24. Stream size : 1.16 GiB (83%)
  25. Title : Release by ANIMES1000
  26. Writing library : x264 core 148 r2715 7e75228
  27. Default : Yes
  28. Forced : No
  29.  
  30. Audio #1
  31. ID : 2
  32. Format : E-AC-3
  33. Format/Info : Enhanced AC-3
  34. Commercial name : Dolby Digital Plus
  35. Codec ID : A_EAC3
  36. Duration : 27 min 16 s
  37. Bit rate mode : Constant
  38. Bit rate : 640 kb/s
  39. Channel(s) : 6 channels
  40. Channel layout : L R C LFE Ls Rs
  41. Sampling rate : 48.0 kHz
  42. Frame rate : 31.250 FPS (1536 SPF)
  43. Compression mode : Lossy
  44. Stream size : 125 MiB (9%)
  45. Title : Brazilian Portuguese
  46. Language : Portuguese
  47. Service kind : Complete Main
  48. Default : Yes
  49. Forced : No
  50.  
  51. Audio #2
  52. ID : 3
  53. Format : E-AC-3
  54. Format/Info : Enhanced AC-3
  55. Commercial name : Dolby Digital Plus
  56. Codec ID : A_EAC3
  57. Duration : 27 min 16 s
  58. Bit rate mode : Constant
  59. Bit rate : 640 kb/s
  60. Channel(s) : 6 channels
  61. Channel layout : L R C LFE Ls Rs
  62. Sampling rate : 48.0 kHz
  63. Frame rate : 31.250 FPS (1536 SPF)
  64. Compression mode : Lossy
  65. Stream size : 125 MiB (9%)
  66. Title : English
  67. Language : English
  68. Service kind : Complete Main
  69. Default : No
  70. Forced : No
  71.  
  72. Text #1
  73. ID : 4
  74. Format : UTF-8
  75. Codec ID : S_TEXT/UTF8
  76. Codec ID/Info : UTF-8 Plain Text
  77. Duration : 1 s 627 ms
  78. Bit rate : 177 b/s
  79. Count of elements : 1
  80. Stream size : 36.0 Bytes (0%)
  81. Title : Brazilian Portuguese [Forced]
  82. Language : Portuguese
  83. Default : No
  84. Forced : Yes
  85.  
  86. Text #2
  87. ID : 5
  88. Format : UTF-8
  89. Codec ID : S_TEXT/UTF8
  90. Codec ID/Info : UTF-8 Plain Text
  91. Duration : 25 min 47 s
  92. Bit rate : 31 b/s
  93. Count of elements : 242
  94. Stream size : 5.89 KiB (0%)
  95. Title : Brazilian Portuguese [Full]
  96. Language : Portuguese
  97. Default : No
  98. Forced : No
RAW Paste Data