SHARE
TWEET

2013_About_Time_Blu-Ray_1080P_DuaL_X265_10Bits_Slower_ChrisH

ChrisHD13 Jun 26th, 2019 100 Never
Not a member of Pastebin yet? Sign Up, it unlocks many cool features!
  1. Complete name               : C:\\2013_About_Time_Blu-Ray_1080P_DuaL_X265_10Bits_Slower_ChrisHD.mkv
  2. Format                      : Matroska
  3. Format version              : Version 4 / Version 2
  4. File size                   : 3.60 GiB
  5. Duration                    : 2 h 3 min
  6. Overall bit rate            : 4 182 kb/s
  7. Encoded date                : UTC 2017-11-14 10:30:22
  8. Writing application         : mkvmerge v17.0.0 ('Be Ur Friend') 64-bit
  9. Writing library             : libebml v1.3.5 + libmatroska v1.4.8
  10.  
  11. Video
  12. ID                          : 1
  13. Format                      : HEVC
  14. Format/Info                 : High Efficiency Video Coding
  15. Format profile              : Main 10@L4@Main
  16. Codec ID                    : V_MPEGH/ISO/HEVC
  17. Duration                    : 2 h 3 min
  18. Bit rate                    : 1 891 kb/s
  19. Width                       : 1 920 pixels
  20. Height                      : 1 080 pixels
  21. Display aspect ratio        : 16:9
  22. Frame rate mode             : Constant
  23. Frame rate                  : 23.976 (24000/1001) FPS
  24. Color space                 : YUV
  25. Chroma subsampling          : 4:2:0
  26. Bit depth                   : 10 bits
  27. Bits/(Pixel*Frame)          : 0.038
  28. Stream size                 : 1.63 GiB (45%)
  29. Title                       : BD50 - ChrisHD
  30. Writing library             : x265 2.2+2-998d4520d1cf:[Windows][GCC 6.2.0][64 bit] 10bit
  31. Encoding settings           : cpuid=1173503 / frame-threads=6 / numa-pools=40 / wpp / no-pmode / no-pme / no-psnr / no-ssim / log-level=2 / input-csp=1 / input-res=1920x1080 / interlace=0 / total-frames=177473 / level-idc=0 / high-tier=1 / uhd-bd=0 / ref=4 / no-allow-non-conformance / no-repeat-headers / annexb / no-aud / no-hrd / info / hash=0 / no-temporal-layers / open-gop / min-keyint=23 / keyint=250 / bframes=8 / b-adapt=2 / b-pyramid / bframe-bias=0 / rc-lookahead=30 / lookahead-slices=4 / scenecut=40 / no-intra-refresh / ctu=64 / min-cu-size=8 / rect / amp / max-tu-size=32 / tu-inter-depth=2 / tu-intra-depth=2 / limit-tu=0 / rdoq-level=2 / signhide / no-tskip / nr-intra=0 / nr-inter=0 / no-constrained-intra / strong-intra-smoothing / max-merge=3 / limit-refs=2 / limit-modes / me=3 / subme=3 / merange=57 / temporal-mvp / weightp / weightb / no-analyze-src-pics / deblock=0:0 / sao / no-sao-non-deblock / rd=6 / no-early-skip / rskip / no-fast-intra / no-tskip-fast / no-cu-lossless / b-intra / rdpenalty=0 / psy-rd=2.00 / psy-rdoq=1.00 / no-rd-refine / analysis-mode=0 / no-lossless / cbqpoffs=0 / crqpoffs=0 / rc=crf / crf=20.0 / qcomp=0.60 / qpstep=4 / stats-write=0 / stats-read=0 / ipratio=1.40 / pbratio=1.30 / aq-mode=1 / aq-strength=1.00 / cutree / zone-count=0 / no-strict-cbr / qg-size=32 / no-rc-grain / qpmax=69 / qpmin=0 / sar=1 / overscan=0 / videoformat=5 / range=0 / colorprim=2 / transfer=2 / colormatrix=2 / chromaloc=0 / display-window=0 / max-cll=0,0 / min-luma=0 / max-luma=1023 / log2-max-poc-lsb=8 / vui-timing-info / vui-hrd-info / slices=1 / opt-qp-pps / opt-ref-list-length-pps / no-multi-pass-opt-rps / scenecut-bias=0.05
  32. Default                     : Yes
  33. Forced                      : No
  34.  
  35. Audio #1
  36. ID                          : 2
  37. Format                      : DTS
  38. Format/Info                 : Digital Theater Systems
  39. Codec ID                    : A_DTS
  40. Duration                    : 2 h 3 min
  41. Bit rate mode               : Constant
  42. Bit rate                    : 1 509 kb/s
  43. Channel(s)                  : 6 channels
  44. Channel positions           : Front: L C R, Side: L R, LFE
  45. Sampling rate               : 48.0 kHz
  46. Frame rate                  : 93.750 FPS (512 SPF)
  47. Bit depth                   : 24 bits
  48. Compression mode            : Lossy
  49. Stream size                 : 1.30 GiB (36%)
  50. Title                       : Inglés - ChrisHD
  51. Language                    : English
  52. Default                     : Yes
  53. Forced                      : No
  54.  
  55. Audio #2
  56. ID                          : 3
  57. Format                      : DTS
  58. Format/Info                 : Digital Theater Systems
  59. Codec ID                    : A_DTS
  60. Duration                    : 2 h 3 min
  61. Bit rate mode               : Constant
  62. Bit rate                    : 768 kb/s
  63. Channel(s)                  : 6 channels
  64. Channel positions           : Front: L C R, Side: L R, LFE
  65. Sampling rate               : 48.0 kHz
  66. Frame rate                  : 93.750 FPS (512 SPF)
  67. Bit depth                   : 24 bits
  68. Compression mode            : Lossy
  69. Stream size                 : 678 MiB (18%)
  70. Title                       : Latino - ChrisHD
  71. Language                    : Spanish
  72. Default                     : No
  73. Forced                      : No
  74.  
  75. Text #1
  76. ID                          : 4
  77. Format                      : UTF-8
  78. Codec ID                    : S_TEXT/UTF8
  79. Codec ID/Info               : UTF-8 Plain Text
  80. Duration                    : 1 h 56 min
  81. Bit rate                    : 59 b/s
  82. Count of elements           : 1568
  83. Stream size                 : 50.3 KiB (0%)
  84. Title                       : Latino - ChrisHD [SRT]
  85. Language                    : Spanish
  86. Default                     : Yes
  87. Forced                      : No
  88.  
  89. Text #2
  90. ID                          : 5
  91. Format                      : UTF-8
  92. Codec ID                    : S_TEXT/UTF8
  93. Codec ID/Info               : UTF-8 Plain Text
  94. Duration                    : 1 s 793 ms
  95. Bit rate                    : 116 b/s
  96. Count of elements           : 1
  97. Stream size                 : 26.0 Bytes (0%)
  98. Title                       : Forzados - ChrisHD [SRT]
  99. Language                    : Spanish
  100. Default                     : No
  101. Forced                      : No
  102.  
  103. Text #3
  104. ID                          : 6
  105. Format                      : PGS
  106. Muxing mode                 : zlib
  107. Codec ID                    : S_HDMV/PGS
  108. Codec ID/Info               : Picture based subtitle format used on BDs/HD-DVDs
  109. Duration                    : 1 h 56 min
  110. Bit rate                    : 36.6 kb/s
  111. Count of elements           : 3146
  112. Stream size                 : 30.4 MiB (1%)
  113. Title                       : Latino - ChrisHD [PGS]
  114. Language                    : Spanish
  115. Default                     : No
  116. Forced                      : No
  117.  
  118. Text #4
  119. ID                          : 7
  120. Format                      : PGS
  121. Muxing mode                 : zlib
  122. Codec ID                    : S_HDMV/PGS
  123. Codec ID/Info               : Picture based subtitle format used on BDs/HD-DVDs
  124. Duration                    : 1 s 793 ms
  125. Bit rate                    : 89.3 kb/s
  126. Count of elements           : 2
  127. Stream size                 : 19.5 KiB (0%)
  128. Title                       : Forzados - ChrisHD [PGS]
  129. Language                    : Spanish
  130. Default                     : No
  131. Forced                      : No
  132.  
  133. Menu
  134. 00:00:00.000                : en:00:00:00.000
  135. 00:03:58.071                : en:00:03:58.071
  136. 00:10:11.903                : en:00:10:11.903
  137. 00:17:26.295                : en:00:17:26.295
  138. 00:20:38.112                : en:00:20:38.112
  139. 00:26:04.396                : en:00:26:04.396
  140. 00:32:44.004                : en:00:32:44.004
  141. 00:40:26.591                : en:00:40:26.591
  142. 00:45:17.965                : en:00:45:17.965
  143. 00:49:43.439                : en:00:49:43.439
  144. 00:54:50.871                : en:00:54:50.871
  145. 01:03:44.529                : en:01:03:44.529
  146. 01:09:29.374                : en:01:09:29.374
  147. 01:16:28.000                : en:01:16:28.000
  148. 01:21:35.724                : en:01:21:35.724
  149. 01:27:24.448                : en:01:27:24.448
  150. 01:34:52.812                : en:01:34:52.812
  151. 01:43:48.848                : en:01:43:48.848
  152. 01:49:32.316                : en:01:49:32.316
  153. 01:57:03.141                : en:01:57:03.141
RAW Paste Data
We use cookies for various purposes including analytics. By continuing to use Pastebin, you agree to our use of cookies as described in the Cookies Policy. OK, I Understand
Top