Guest User

Untitled

a guest
Jun 11th, 2012
57
Never
Not a member of Pastebin yet? Sign Up, it unlocks many cool features!
  1. General
  2. Complete name : E:\Yurumate Review\[AnimeConsumers] Yurumate3Dei - 01 [1920x1080 xvid MP3I][CRC 4ed98fe1].avi
  3. Format : AVI
  4. Format/Info : Audio Video Interleave
  5. File size : 79.6 MiB
  6. Duration : 2mn 59s
  7. Overall bit rate : 3 708 Kbps
  8. Writing application : VirtualDubMod 1.5.10.2 (build 2542/release)
  9. Writing library : VirtualDubMod build 2542/release
  10.  
  11. Video
  12. ID : 0
  13. Format : MPEG-4 Visual
  14. Format profile : Advanced Simple@L5
  15. Format settings, BVOP : 1
  16. Format settings, QPel : No
  17. Format settings, GMC : No warppoints
  18. Format settings, Matrix : Default (H.263)
  19. Muxing mode : Packed bitstream
  20. Codec ID : XVID
  21. Codec ID/Hint : XviD
  22. Duration : 2mn 59s
  23. Bit rate : 3 378 Kbps
  24. Width : 1 920 pixels
  25. Height : 1 080 pixels
  26. Display aspect ratio : 16:9
  27. Frame rate : 23.976 fps
  28. Color space : YUV
  29. Chroma subsampling : 4:2:0
  30. Bit depth : 8 bits
  31. Scan type : Progressive
  32. Compression mode : Lossy
  33. Bits/(Pixel*Frame) : 0.068
  34. Stream size : 72.5 MiB (91%)
  35. Writing library : XviD 62
  36.  
  37. Audio
  38. ID : 1
  39. Format : MPEG Audio
  40. Format version : Version 1
  41. Format profile : Layer 3
  42. Mode : Joint stereo
  43. Mode extension : MS Stereo
  44. Codec ID : 55
  45. Codec ID/Hint : MP3
  46. Duration : 2mn 59s
  47. Bit rate mode : Constant
  48. Bit rate : 320 Kbps
  49. Channel(s) : 2 channels
  50. Sampling rate : 48.0 KHz
  51. Compression mode : Lossy
  52. Stream size : 6.87 MiB (9%)
  53. Alignment : Split accross interleaves
  54. Interleave, duration : 42 ms (1.00 video frame)
  55. Interleave, preload duration : 500 ms
RAW Paste Data

Adblocker detected! Please consider disabling it...

We've detected AdBlock Plus or some other adblocking software preventing Pastebin.com from fully loading.

We don't have any obnoxious sound, or popup ads, we actively block these annoying types of ads!

Please add Pastebin.com to your ad blocker whitelist or disable your adblocking software.

×