Secasa

Untitled

May 15th, 2015
11
Never
Not a member of Pastebin yet? Sign Up, it unlocks many cool features!
  1. Format : Matroska
  2. Format version : Version 4 / Version 2
  3. File size : 6.01 GiB
  4. Duration : 1h 50mn
  5. Overall bit rate : 7 786 Kbps
  6. Encoded date : UTC 2015-05-11 11:51:54
  7. Writing application : mkvmerge v7.9.0 ('Birds') 64bit
  8. Writing library : libebml v1.3.1 + libmatroska v1.4.2
  9. _STATISTICS_WRITING_APP : mkvmerge v7.9.0 ('Birds') 64bit
  10. _STATISTICS_WRITING_DATE_UT : 2015-05-11 11:51:54
  11. _STATISTICS_TAGS : BPS DURATION NUMBER_OF_FRAMES NUMBER_OF_BYTES
  12. DURATION : 01:50:28.032000000
  13. NUMBER_OF_FRAMES : 207126
  14. NUMBER_OF_BYTES : 371169792
  15.  
  16. Video
  17. ID : 1
  18. Format : AVC
  19. Format/Info : Advanced Video Codec
  20. Format profile : High@L4.0
  21. Format settings, CABAC : Yes
  22. Format settings, ReFrames : 4 frames
  23. Codec ID : V_MPEG4/ISO/AVC
  24. Duration : 1h 50mn
  25. Bit rate : 6 991 Kbps
  26. Width : 1 920 pixels
  27. Height : 1 040 pixels
  28. Display aspect ratio : 1.85:1
  29. Frame rate mode : Constant
  30. Frame rate : 23.976 fps
  31. Color space : YUV
  32. Chroma subsampling : 4:2:0
  33. Bit depth : 8 bits
  34. Scan type : Progressive
  35. Bits/(Pixel*Frame) : 0.146
  36. Stream size : 5.39 GiB (90%)
  37. Writing library : x264 core 142 r2479 dd79a61
  38. Encoding settings : cabac=1 / ref=3 / deblock=1:0:0 / analyse=0x3:0x113 / me=hex / subme=7 / psy=1 / psy_rd=1.00:0.00 / mixed_ref=1 / me_range=16 / chroma_me=1 / trellis=1 / 8x8dct=1 / cqm=0 / deadzone=21,11 / fast_pskip=1 / chroma_qp_offset=-2 / threads=12 / lookahead_threads=2 / sliced_threads=0 / nr=0 / decimate=1 / interlaced=0 / bluray_compat=0 / constrained_intra=0 / bframes=3 / b_pyramid=2 / b_adapt=1 / b_bias=0 / direct=1 / weightb=1 / open_gop=0 / weightp=2 / keyint=240 / keyint_min=24 / scenecut=40 / intra_refresh=0 / rc_lookahead=40 / rc=crf / mbtree=1 / crf=22.0 / qcomp=0.60 / qpmin=0 / qpmax=69 / qpstep=4 / ip_ratio=1.40 / aq=1:1.00
  39. Language : Spanish
  40. Default : Yes
  41. Forced : No
  42. Color primaries : BT.709
  43. Transfer characteristics : BT.709
  44. Matrix coefficients : BT.709
  45. Color range : Limited
  46. DURATION : 01:50:27.246000000
  47. NUMBER_OF_FRAMES : 158895
  48. NUMBER_OF_BYTES : 5919129254
  49. _STATISTICS_WRITING_APP : mkvmerge v7.9.0 ('Birds') 64bit
  50. _STATISTICS_WRITING_DATE_UT : 2015-05-11 11:51:54
  51. _STATISTICS_TAGS : BPS DURATION NUMBER_OF_FRAMES NUMBER_OF_BYTES
  52.  
  53. Audio #1
  54. ID : 2
  55. Format : AC-3
  56. Format/Info : Audio Coding 3
  57. Mode extension : CM (complete main)
  58. Format settings, Endianness : Big
  59. Codec ID : A_AC3
  60. Duration : 1h 50mn
  61. Bit rate mode : Constant
  62. Bit rate : 192 Kbps
  63. Channel(s) : 2 channels
  64. Channel positions : Front: L R
  65. Sampling rate : 48.0 KHz
  66. Bit depth : 16 bits
  67. Compression mode : Lossy
  68. Delay relative to video : 2s 717ms
  69. Stream size : 152 MiB (2%)
  70. Title : ac3
  71. Language : Spanish
  72. Default : Yes
  73. Forced : No
  74.  
  75. Audio #2
  76. ID : 3
  77. Format : AC-3
  78. Format/Info : Audio Coding 3
  79. Mode extension : CM (complete main)
  80. Format settings, Endianness : Big
  81. Codec ID : A_AC3
  82. Duration : 1h 50mn
  83. Bit rate mode : Constant
  84. Bit rate : 448 Kbps
  85. Channel(s) : 2 channels
  86. Channel positions : Front: L R
  87. Sampling rate : 48.0 KHz
  88. Bit depth : 16 bits
  89. Compression mode : Lossy
  90. Delay relative to video : -83ms
  91. Stream size : 354 MiB (6%)
  92. Language : English
  93. Default : No
  94. Forced : No
  95.  
  96. Text #1
  97. ID : 4
  98. Format : UTF-8
  99. Codec ID : S_TEXT/UTF8
  100. Codec ID/Info : UTF-8 Plain Text
  101. Title : subt. forzados.
  102. Language : Spanish
  103. Default : No
  104. Forced : No
  105.  
  106. Text #2
  107. ID : 5
  108. Format : UTF-8
  109. Codec ID : S_TEXT/UTF8
  110. Codec ID/Info : UTF-8 Plain Text
  111. Title : subt. completos.
  112. Language : Spanish
  113. Default : No
  114. Forced : No
  115.  
  116. Text #3
  117. ID : 6
  118. Format : UTF-8
  119. Codec ID : S_TEXT/UTF8
  120. Codec ID/Info : UTF-8 Plain Text
  121. Language : Spanish
  122. Default : Yes
  123. Forced : Yes
RAW Paste Data