iMN0

Snowtown.2011.1080p.BluRay.x264-aAF.mkv

Jul 16th, 2021
83
Never
Not a member of Pastebin yet? Sign Up, it unlocks many cool features!
  1. General
  2. Unique ID : 184844736196191675242646160282395374829 (0x8B0FCD1EBCB0A2FCA11513C56F8C74ED)
  3. Complete name : Snowtown.2011.1080p.BluRay.x264-aAF.mkv
  4. Format : Matroska
  5. Format version : Version 2
  6. File size : 8.75 GiB
  7. Duration : 2 h 0 min
  8. Overall bit rate : 10.4 Mb/s
  9. Encoded date : UTC 2011-09-23 20:38:38
  10. Writing application : mkvmerge v4.9.1 ('Ich will') built on Jul 11 2011 23:53:15
  11. Writing library : libebml v1.2.1 + libmatroska v1.1.1
  12.  
  13. Video
  14. ID : 1
  15. Format : AVC
  16. Format/Info : Advanced Video Codec
  17. Format profile : High@L4.1
  18. Format settings : CABAC / 4 Ref Frames
  19. Format settings, CABAC : Yes
  20. Format settings, Reference frames : 4 frames
  21. Codec ID : V_MPEG4/ISO/AVC
  22. Duration : 2 h 0 min
  23. Bit rate : 9 785 kb/s
  24. Width : 1 920 pixels
  25. Height : 1 040 pixels
  26. Display aspect ratio : 1.85:1
  27. Frame rate mode : Constant
  28. Frame rate : 24.000 FPS
  29. Color space : YUV
  30. Chroma subsampling : 4:2:0
  31. Bit depth : 8 bits
  32. Scan type : Progressive
  33. Bits/(Pixel*Frame) : 0.204
  34. Stream size : 8.04 GiB (92%)
  35. Writing library : x264 core 118 r2085 8a62835
  36. Encoding settings : cabac=1 / ref=4 / deblock=1:0:0 / analyse=0x3:0x133 / me=umh / subme=8 / psy=1 / psy_rd=1.00:0.00 / mixed_ref=1 / me_range=16 / chroma_me=1 / trellis=1 / 8x8dct=1 / cqm=0 / deadzone=21,11 / fast_pskip=0 / chroma_qp_offset=-2 / threads=12 / sliced_threads=0 / nr=0 / decimate=1 / interlaced=0 / bluray_compat=0 / constrained_intra=0 / bframes=3 / b_pyramid=2 / b_adapt=1 / b_bias=0 / direct=1 / weightb=1 / open_gop=0 / weightp=2 / keyint=250 / keyint_min=25 / scenecut=40 / intra_refresh=0 / rc_lookahead=40 / rc=2pass / mbtree=1 / bitrate=9785 / ratetol=1.0 / qcomp=0.60 / qpmin=0 / qpmax=69 / qpstep=4 / cplxblur=20.0 / qblur=0.5 / ip_ratio=1.40 / aq=1:1.00
  37. Language : English
  38. Default : Yes
  39. Forced : No
  40.  
  41. Audio
  42. ID : 2
  43. Format : AC-3
  44. Format/Info : Audio Coding 3
  45. Commercial name : Dolby Digital
  46. Codec ID : A_AC3
  47. Duration : 2 h 0 min
  48. Bit rate mode : Constant
  49. Bit rate : 640 kb/s
  50. Channel(s) : 6 channels
  51. Channel layout : L R C LFE Ls Rs
  52. Sampling rate : 48.0 kHz
  53. Frame rate : 31.250 FPS (1536 SPF)
  54. Compression mode : Lossy
  55. Stream size : 550 MiB (6%)
  56. Service kind : Complete Main
  57. Default : Yes
  58. Forced : No
RAW Paste Data