SHARE
TWEET

Untitled

seleZennet Nov 13th, 2019 116 Never
Not a member of Pastebin yet? Sign Up, it unlocks many cool features!
  1. General
  2. Unique ID                   : 335649874367650416433973041366920763291 (0xFC83D07BB21BDAA3B2A5B6138936979B)
  3. Complete name               : D:\Video111\Crawl.2019.BDRip.720p.seleZen.mkv
  4. Format                      : Matroska
  5. Format version              : Version 4
  6. File size                   : 5.21 GiB
  7. Duration                    : 1 h 27 min
  8. Overall bit rate            : 8 529 kb/s
  9. Movie name                  : Crawl 2019 from селезень
  10. Encoded date                : UTC 2019-11-13 22:48:10
  11. Writing application         : mkvmerge v40.0.0 ('Old Town Road + Pony') 64-bit
  12. Writing library             : libebml v1.3.9 + libmatroska v1.5.2
  13.  
  14. Video
  15. ID                          : 1
  16. Format                      : AVC
  17. Format/Info                 : Advanced Video Codec
  18. Format profile              : High@L4.1
  19. Format settings             : CABAC / 12 Ref Frames
  20. Format settings, CABAC      : Yes
  21. Format settings, Reference  : 12 frames
  22. Codec ID                    : V_MPEG4/ISO/AVC
  23. Duration                    : 1 h 27 min
  24. Bit rate                    : 7 247 kb/s
  25. Width                       : 1 280 pixels
  26. Height                      : 536 pixels
  27. Display aspect ratio        : 2.40:1
  28. Frame rate mode             : Constant
  29. Frame rate                  : 23.976 (24000/1001) FPS
  30. Color space                 : YUV
  31. Chroma subsampling          : 4:2:0
  32. Bit depth                   : 8 bits
  33. Scan type                   : Progressive
  34. Bits/(Pixel*Frame)          : 0.441
  35. Stream size                 : 4.43 GiB (85%)
  36. Title                       : SillyBird
  37. Writing library             : x264 core 157 r2867+103 0d6443f t_mod_Custom_2 [8-bit@all X86_64]
  38. Encoding settings           : cabac=1 / ref=12 / deblock=1:-3:-3 / analyse=0x3:0x133 / me=umh / subme=10 / psy=1 / fade_compensate=0.00 / psy_rd=1.00:0.00 / mixed_ref=1 / me_range=32 / chroma_me=1 / trellis=2 / 8x8dct=1 / cqm=0 / deadzone=21,11 / fast_pskip=0 / chroma_qp_offset=-2 / threads=17 / lookahead_threads=2 / sliced_threads=0 / nr=0 / decimate=0 / interlaced=0 / bluray_compat=0 / constrained_intra=0 / fgo=0 / bframes=8 / b_pyramid=2 / b_adapt=2 / b_bias=0 / direct=3 / weightb=1 / open_gop=0 / weightp=2 / keyint=250 / keyint_min=23 / scenecut=40 / intra_refresh=0 / rc=crf / mbtree=0 / crf=15.0000 / qcomp=0.60 / qpmin=0:0:0 / qpmax=69:69:69 / qpstep=4 / ip_ratio=1.40 / pb_ratio=1.30 / aq=3:0.80 / aq-sensitivity=10.00 / aq-factor=1.00:1.00:1.00 / aq2=0 / aq3=0
  39. Language                    : English
  40. Default                     : Yes
  41. Forced                      : No
  42.  
  43. Audio #1
  44. ID                          : 2
  45. Format                      : AC-3
  46. Format/Info                 : Audio Coding 3
  47. Commercial name             : Dolby Digital
  48. Codec ID                    : A_AC3
  49. Duration                    : 1 h 27 min
  50. Bit rate mode               : Constant
  51. Bit rate                    : 640 kb/s
  52. Channel(s)                  : 6 channels
  53. Channel layout              : L R C LFE Ls Rs
  54. Sampling rate               : 48.0 kHz
  55. Frame rate                  : 31.250 FPS (1536 SPF)
  56. Bit depth                   : 16 bits
  57. Compression mode            : Lossy
  58. Stream size                 : 401 MiB (8%)
  59. Title                       : Dub [License]
  60. Language                    : Russian
  61. Service kind                : Complete Main
  62. Default                     : Yes
  63. Forced                      : Yes
  64.  
  65. Audio #2
  66. ID                          : 3
  67. Format                      : AC-3
  68. Format/Info                 : Audio Coding 3
  69. Commercial name             : Dolby Digital
  70. Codec ID                    : A_AC3
  71. Duration                    : 1 h 27 min
  72. Bit rate mode               : Constant
  73. Bit rate                    : 640 kb/s
  74. Channel(s)                  : 6 channels
  75. Channel layout              : L R C LFE Ls Rs
  76. Sampling rate               : 48.0 kHz
  77. Frame rate                  : 31.250 FPS (1536 SPF)
  78. Bit depth                   : 16 bits
  79. Compression mode            : Lossy
  80. Stream size                 : 401 MiB (8%)
  81. Title                       : Original
  82. Language                    : English
  83. Service kind                : Complete Main
  84. Default                     : No
  85. Forced                      : No
  86.  
  87. Text #1
  88. ID                          : 4
  89. Format                      : UTF-8
  90. Codec ID                    : S_TEXT/UTF8
  91. Codec ID/Info               : UTF-8 Plain Text
  92. Duration                    : 1 h 26 min
  93. Bit rate                    : 0 b/s
  94. Count of elements           : 12
  95. Stream size                 : 456 Bytes (0%)
  96. Title                       : Forced
  97. Language                    : Russian
  98. Default                     : Yes
  99. Forced                      : Yes
  100.  
  101. Text #2
  102. ID                          : 5
  103. Format                      : UTF-8
  104. Codec ID                    : S_TEXT/UTF8
  105. Codec ID/Info               : UTF-8 Plain Text
  106. Duration                    : 1 h 24 min
  107. Bit rate                    : 37 b/s
  108. Count of elements           : 591
  109. Stream size                 : 23.0 KiB (0%)
  110. Title                       : Full
  111. Language                    : Russian
  112. Default                     : No
  113. Forced                      : No
  114.  
  115. Text #3
  116. ID                          : 6
  117. Format                      : UTF-8
  118. Codec ID                    : S_TEXT/UTF8
  119. Codec ID/Info               : UTF-8 Plain Text
  120. Duration                    : 1 h 16 min
  121. Bit rate                    : 24 b/s
  122. Count of elements           : 551
  123. Stream size                 : 13.9 KiB (0%)
  124. Language                    : English
  125. Default                     : No
  126. Forced                      : No
  127.  
  128. Menu
  129. 00:00:00.000                : :Chapter 01
  130. 00:07:51.805                : :Chapter 02
  131. 00:15:16.290                : :Chapter 03
  132. 00:22:15.459                : :Chapter 04
  133. 00:34:42.998                : :Chapter 05
  134. 00:42:15.283                : :Chapter 06
  135. 00:50:13.219                : :Chapter 07
  136. 00:57:13.221                : :Chapter 08
  137. 01:03:51.619                : :Chapter 09
  138. 01:08:56.299                : :Chapter 10
  139. 01:16:36.425                : :Chapter 11
  140. 01:23:10.819                : :Chapter 12
RAW Paste Data
We use cookies for various purposes including analytics. By continuing to use Pastebin, you agree to our use of cookies as described in the Cookies Policy. OK, I Understand
 
Top