Guest User

ndjkasndkje01

a guest
Mar 30th, 2018
216
Never
Not a member of Pastebin yet? Sign Up, it unlocks many cool features!
  1. General
  2. Unique ID : 142198140536813220614677555827838205857 (0x6AFA5D9DD576ACE6596CC1435A22BFA1)
  3. Complete name : Shirobako - 01 (BD 1920x1080 x265 FLAC).mkv
  4. Format : Matroska
  5. Format version : Version 4 / Version 2
  6. File size : 724 MiB
  7. Duration : 24 min 42 s
  8. Overall bit rate mode : Variable
  9. Overall bit rate : 4 099 kb/s
  10. Encoded date : UTC 2018-03-29 16:07:00
  11. Writing application : mkvmerge v21.0.0 ('Tardigrades Will Inherit The Earth') 64-bit
  12. Writing library : libebml v1.3.5 + libmatroska v1.4.8
  13. Attachments : ahronbd.ttf / ALLER_LT.TTF / Aller_Rg.ttf / Andyb.TTF / animeace2_bld.ttf / anirb.ttf / Arial Rounded MT.ttf / Delicious-Heavy.otf / DFPTFLeiSho-W7-Denpa.ttf / DIGITAL NINJA.ttf / fansubBlock.ttf / fawn.ttf / fennrg.ttf / Flora.TTF / Fontin_Sans.otf / Fontin_Sans_BI.otf / Formata.ttf / FOTPopJoyStdStripped-B.otf / FTLTLT.TTF / German Beauty.ttf / GROBOLD.ttf / It Aint Rocket Science.ttf / Jorvik.ttf / Merienda-Regular.ttf / Minecraftia.ttf / ThrowMyHandsUpintheAir.ttf / GROBOLD.ttf / KMKDSP_.ttf / Margarine-Regular.ttf
  14.  
  15. Video
  16. ID : 1
  17. Format : HEVC
  18. Format/Info : High Efficiency Video Coding
  19. Codec ID : V_MPEGH/ISO/HEVC
  20. Duration : 24 min 42 s
  21. Bit rate : 2 710 kb/s
  22. Width : 1 920 pixels
  23. Height : 1 080 pixels
  24. Display aspect ratio : 16:9
  25. Frame rate mode : Constant
  26. Frame rate : 23.976 (24000/1001) FPS
  27. Bits/(Pixel*Frame) : 0.055
  28. Stream size : 479 MiB (66%)
  29. Default : Yes
  30. Forced : No
  31.  
  32. Audio
  33. ID : 2
  34. Format : FLAC
  35. Format/Info : Free Lossless Audio Codec
  36. Codec ID : A_FLAC
  37. Duration : 24 min 42 s
  38. Bit rate mode : Variable
  39. Bit rate : 1 375 kb/s
  40. Channel(s) : 2 channels
  41. Channel positions : Front: L R
  42. Sampling rate : 48.0 kHz
  43. Frame rate : 11.719 FPS (4096 SPF)
  44. Bit depth : 24 bits
  45. Stream size : 243 MiB (34%)
  46. Writing library : libFLAC 1.2.1 (UTC 2007-09-17)
  47. Language : Japanese
  48. Default : Yes
  49. Forced : No
  50.  
  51. Text
  52. ID : 3
  53. Format : ASS
  54. Codec ID : S_TEXT/ASS
  55. Codec ID/Info : Advanced Sub Station Alpha
  56. Duration : 24 min 36 s
  57. Bit rate : 736 b/s
  58. Count of elements : 1076
  59. Compression mode : Lossless
  60. Stream size : 133 KiB (0%)
  61. Title : Subtitles [LNS]
  62. Language : English
  63. Default : Yes
  64. Forced : No
  65.  
  66. Menu
  67. 00:00:00.000 : en:Opening
  68. 00:01:30.000 : en:Part A
  69. 00:12:33.044 : en:Part B
  70. 00:23:00.004 : en:Ending
RAW Paste Data