Advertisement
Guest User

Untitled

a guest
Jul 30th, 2011
1,158
Never
Not a member of Pastebin yet? Sign Up, it unlocks many cool features!
  1. General
  2. Complete name : potc_worldsend_blooper_reel.mkv
  3. Format : Matroska
  4. File size : 136 MiB
  5. Duration : 5mn 20s
  6. Overall bit rate : 3 550 Kbps
  7. Encoded date : UTC 2011-07-30 02:12:51
  8. Writing application : mkvmerge v4.7.0 ('Just Like You Imagined') built on Apr 21 2011 01:13:14
  9. Writing library : libebml v1.2.0 + libmatroska v1.1.0
  10.  
  11. Video
  12. ID : 1
  13. Format : AVC
  14. Format/Info : Advanced Video Codec
  15. Format profile : High 10@L5.1
  16. Format settings, CABAC : Yes
  17. Format settings, ReFrames : 3 frames
  18. Muxing mode : Container profile=Unknown@5.1
  19. Codec ID : V_MPEG4/ISO/AVC
  20. Duration : 5mn 20s
  21. Bit rate : 3 072 Kbps
  22. Width : 1 920 pixels
  23. Height : 1 080 pixels
  24. Display aspect ratio : 16:9
  25. Frame rate : 23.976 fps
  26. Color space : YUV
  27. Chroma subsampling : 4:2:0
  28. Bit depth : 10 bits
  29. Scan type : Progressive
  30. Bits/(Pixel*Frame) : 0.062
  31. Stream size : 116 MiB (85%)
  32. Writing library : x264 core 116 r2037 f8ebd4a
  33. Encoding settings : cabac=1 / ref=3 / deblock=1:0:0 / analyse=0x3:0x133 / me=tesa / subme=10 / psy=1 / psy_rd=1.00:0.15 / mixed_ref=1 / me_range=16 / chroma_me=1 / trellis=2 / 8x8dct=1 / cqm=0 / deadzone=21,11 / fast_pskip=1 / chroma_qp_offset=-3 / threads=3 / sliced_threads=0 / nr=0 / decimate=1 / interlaced=0 / bluray_compat=0 / constrained_intra=0 / bframes=3 / b_pyramid=0 / b_adapt=2 / b_bias=0 / direct=1 / weightb=1 / open_gop=0 / weightp=2 / keyint=240 / keyint_min=24 / scenecut=40 / intra_refresh=0 / rc_lookahead=40 / rc=2pass / mbtree=1 / bitrate=3072 / ratetol=1.0 / qcomp=0.60 / qpmin=0 / qpmax=81 / qpstep=4 / cplxblur=20.0 / qblur=0.5 / vbv_maxrate=25000 / vbv_bufsize=25000 / nal_hrd=vbr / ip_ratio=1.40 / aq=1:1.00
  34.  
  35. Audio
  36. ID : 2
  37. Format : AC-3
  38. Format/Info : Audio Coding 3
  39. Mode extension : CM (complete main)
  40. Codec ID : A_AC3
  41. Duration : 5mn 20s
  42. Bit rate mode : Constant
  43. Bit rate : 448 Kbps
  44. Channel(s) : 6 channels
  45. Channel positions : Front: L C R, Side: L R, LFE
  46. Sampling rate : 48.0 KHz
  47. Stream size : 17.1 MiB (13%)
  48.  
  49. Text #1
  50. ID : 3
  51. Format : PGS
  52. Codec ID : S_HDMV/PGS
  53. Codec ID/Info : The same subtitle format used on BDs/HD-DVDs
  54. Language : Japanese
  55.  
  56. Text #2
  57. ID : 4
  58. Format : PGS
  59. Codec ID : S_HDMV/PGS
  60. Codec ID/Info : The same subtitle format used on BDs/HD-DVDs
  61. Language : Chinese
  62.  
  63. Text #3
  64. ID : 5
  65. Format : PGS
  66. Codec ID : S_HDMV/PGS
  67. Codec ID/Info : The same subtitle format used on BDs/HD-DVDs
  68. Language : Korean
  69.  
  70. Text #4
  71. ID : 6
  72. Format : PGS
  73. Codec ID : S_HDMV/PGS
  74. Codec ID/Info : The same subtitle format used on BDs/HD-DVDs
  75. Language : Spanish
Advertisement
RAW Paste Data Copied
Advertisement