Ledger Nano X - The secure hardware wallet
SHARE
TWEET

Untitled

a guest Jan 9th, 2020 86 Never
Not a member of Pastebin yet? Sign Up, it unlocks many cool features!
  1. Общее
  2. Полное имя : D:\Кинозал\Harmony.2018.BDRip.avi
  3. Формат : AVI
  4. Формат/Информация : Audio Video Interleave
  5. Размер файла : 1,41 Гбайт
  6. Продолжительность : 1 ч. 30 м.
  7. Общий поток : 2245 Кбит/сек
  8. Программа кодирования : VirtualDubMod 1.5.10.3 (build 2550/release)
  9. Библиотека кодирования : VirtualDubMod build 2550/release
  10.  
  11. Видео
  12. Идентификатор : 0
  13. Формат : MPEG-4 Visual
  14. Профиль формата : Advanced Simple@L5
  15. Настройки формата : BVOP1 / Custom Matrix
  16. Параметр BVOP формата : 1
  17. Параметр QPel формата : Нет
  18. Параметр GMC формата : Без точки перехода
  19. Параметр матрицы формата : Выборочная
  20. Идентификатор кодека : XVID
  21. Идентификатор кодека/Подсказка : XviD
  22. Продолжительность : 1 ч. 30 м.
  23. Битрейт : 1852 Кбит/сек
  24. Ширина : 720 пикселей
  25. Высота : 304 пикселя
  26. Соотношение сторон : 2,35:1
  27. Частота кадров : 23,976 (24000/1001) кадра/сек
  28. Цветовое пространство : YUV
  29. Субдискретизация насыщенности : 4:2:0
  30. Битовая глубина : 8 бит
  31. Тип развёртки : Прогрессивная
  32. Метод сжатия : С потерями
  33. Бит/(Пиксели*Кадры) : 0.353
  34. Размер потока : 1,17 Гбайт (82%)
  35. Библиотека кодирования : XviD 67
  36.  
  37. Аудио
  38. Идентификатор : 1
  39. Формат : AC-3
  40. Формат/Информация : Audio Coding 3
  41. Параметр Endianness формата : Big
  42. Идентификатор кодека : 2000
  43. Продолжительность : 1 ч. 30 м.
  44. Вид битрейта : Постоянный
  45. Битрейт : 384 Кбит/сек
  46. Каналы : 6 каналов
  47. Расположение каналов : Front: L C R, Side: L R, LFE
  48. Частота : 48,0 КГц
  49. Частота кадров : 31,250 кадров/сек (1536 SPF)
  50. Битовая глубина : 16 бит
  51. Метод сжатия : С потерями
  52. Размер потока : 248 Мбайт (17%)
  53. Выравнивание : Разделение по промежуткам
  54. Продолжительность промежутка : 42 мс. (1,00 видеокадр)
  55. Время предзагрузки промежутка : 500 мс.
  56. ServiceKind/String : Complete Main
RAW Paste Data
We use cookies for various purposes including analytics. By continuing to use Pastebin, you agree to our use of cookies as described in the Cookies Policy. OK, I Understand
Top