Guest User

Untitled

a guest
Nov 5th, 2021
34
Never
Not a member of Pastebin yet? Sign Up, it unlocks many cool features!
  1. General
  2. Unique ID : 139779946363378737499748193138686018391 (0x6928A37051C0FA2A078A8282734FC357)
  3. Complete name : E:\Video\Candyman.2021.BDRip.1080p.seleZen.mkv
  4. Format : Matroska
  5. Format version : Version 4
  6. File size : 8.29 GiB
  7. Duration : 1 h 31 min
  8. Overall bit rate : 13.0 Mb/s
  9. Movie name : Candyman 2021 from seleZen
  10. Encoded date : UTC 2021-11-05 20:03:59
  11. Writing application : mkvmerge v59.0.0 ('Shining Star') 64-bit
  12. Writing library : libebml v1.4.2 + libmatroska v1.6.4
  13.  
  14. Video
  15. ID : 1
  16. Format : AVC
  17. Format/Info : Advanced Video Codec
  18. Format profile : High@L4.1
  19. Format settings : CABAC / 5 Ref Frames
  20. Format settings, CABAC : Yes
  21. Format settings, Reference frames : 5 frames
  22. Codec ID : V_MPEG4/ISO/AVC
  23. Duration : 1 h 31 min
  24. Bit rate : 12.0 Mb/s
  25. Width : 1 920 pixels
  26. Height : 804 pixels
  27. Display aspect ratio : 2.40:1
  28. Frame rate mode : Constant
  29. Frame rate : 23.976 (24000/1001) FPS
  30. Color space : YUV
  31. Chroma subsampling : 4:2:0
  32. Bit depth : 8 bits
  33. Scan type : Progressive
  34. Bits/(Pixel*Frame) : 0.325
  35. Stream size : 7.64 GiB (92%)
  36. Title : MTeam
  37. Writing library : x264 core 157 r2938 2b00a84 TnP@MTeam Mod
  38. Encoding settings : cabac=1 / ref=5 / deblock=1:-3:-3 / analyse=0x3:0x133 / me=umh / subme=10 / psy=1 / psy_rd=1.05:0.00 / mixed_ref=1 / me_range=32 / chroma_me=1 / trellis=2 / 8x8dct=1 / cqm=0 / deadzone=21,11 / fast_pskip=0 / chroma_qp_offset=-2 / threads=12 / lookahead_threads=2 / sliced_threads=0 / nr=0 / decimate=0 / interlaced=0 / bluray_compat=0 / constrained_intra=0 / bframes=8 / b_pyramid=2 / b_adapt=2 / b_bias=0 / direct=3 / weightb=1 / open_gop=0 / weightp=2 / keyint=250 / keyint_min=24 / scenecut=40 / intra_refresh=0 / rc_lookahead=250 / rc=crf / mbtree=0 / crf=16.8 / qcomp=0.60 / qpmin=0 / qpmax=69 / qpstep=4 / vbv_maxrate=62500 / vbv_bufsize=78125 / crf_max=0.0 / nal_hrd=none / filler=0 / ip_ratio=1.30 / pb_ratio=1.20 / aq=3:0.80
  39. Language : English
  40. Default : Yes
  41. Forced : No
  42. Color range : Limited
  43. Color primaries : BT.709
  44. Matrix coefficients : BT.709
  45.  
  46. Audio #1
  47. ID : 2
  48. Format : AC-3
  49. Format/Info : Audio Coding 3
  50. Commercial name : Dolby Digital
  51. Codec ID : A_AC3
  52. Duration : 1 h 31 min
  53. Bit rate mode : Constant
  54. Bit rate : 384 kb/s
  55. Channel(s) : 6 channels
  56. Channel layout : L R C LFE Ls Rs
  57. Sampling rate : 48.0 kHz
  58. Frame rate : 31.250 FPS (1536 SPF)
  59. Compression mode : Lossy
  60. Stream size : 250 MiB (3%)
  61. Title : iTunes
  62. Language : Russian
  63. Service kind : Complete Main
  64. Default : Yes
  65. Forced : Yes
  66.  
  67. Audio #2
  68. ID : 3
  69. Format : AC-3
  70. Format/Info : Audio Coding 3
  71. Commercial name : Dolby Digital
  72. Codec ID : A_AC3
  73. Duration : 1 h 31 min
  74. Bit rate mode : Constant
  75. Bit rate : 640 kb/s
  76. Channel(s) : 6 channels
  77. Channel layout : L R C LFE Ls Rs
  78. Sampling rate : 48.0 kHz
  79. Frame rate : 31.250 FPS (1536 SPF)
  80. Compression mode : Lossy
  81. Stream size : 417 MiB (5%)
  82. Title : Original
  83. Language : English
  84. Service kind : Complete Main
  85. Default : No
  86. Forced : No
  87.  
  88. Text #1
  89. ID : 4
  90. Format : UTF-8
  91. Codec ID : S_TEXT/UTF8
  92. Codec ID/Info : UTF-8 Plain Text
  93. Duration : 1 h 28 min
  94. Bit rate : 0 b/s
  95. Count of elements : 11
  96. Stream size : 573 Bytes (0%)
  97. Title : Forced
  98. Language : Russian
  99. Default : Yes
  100. Forced : Yes
  101.  
  102. Text #2
  103. ID : 5
  104. Format : UTF-8
  105. Codec ID : S_TEXT/UTF8
  106. Codec ID/Info : UTF-8 Plain Text
  107. Duration : 1 h 24 min
  108. Bit rate : 77 b/s
  109. Count of elements : 1011
  110. Stream size : 48.4 KiB (0%)
  111. Title : Full
  112. Language : Russian
  113. Default : No
  114. Forced : No
  115.  
  116. Text #3
  117. ID : 6
  118. Format : UTF-8
  119. Codec ID : S_TEXT/UTF8
  120. Codec ID/Info : UTF-8 Plain Text
  121. Duration : 1 h 26 min
  122. Bit rate : 56 b/s
  123. Count of elements : 1255
  124. Stream size : 35.8 KiB (0%)
  125. Title : SDH
  126. Language : English
  127. Default : No
  128. Forced : No
  129.  
  130. Menu
  131. 00:00:00.000 : Chapter 01
  132. 00:06:34.269 : Chapter 02
  133. 00:12:45.515 : Chapter 03
  134. 00:18:00.621 : Chapter 04
  135. 00:21:03.888 : Chapter 05
  136. 00:24:59.915 : Chapter 06
  137. 00:30:13.311 : Chapter 07
  138. 00:34:37.117 : Chapter 08
  139. 00:38:23.760 : Chapter 09
  140. 00:41:22.772 : Chapter 10
  141. 00:46:14.480 : Chapter 11
  142. 00:49:43.647 : Chapter 12
  143. 00:53:53.313 : Chapter 13
  144. 00:57:36.870 : Chapter 14
  145. 01:00:56.027 : Chapter 15
  146. 01:03:32.434 : Chapter 16
  147. 01:08:56.132 : Chapter 17
  148. 01:13:33.034 : Chapter 18
  149. 01:20:20.399 : Chapter 19
  150. 01:26:08.330 : Chapter 20
  151.  
  152.  
RAW Paste Data