iMN0

Eftihia.2019.1080p.HDTV.x264-NoGRP.mkv

Jul 3rd, 2021 (edited)
99
Never
Not a member of Pastebin yet? Sign Up, it unlocks many cool features!
  1. General
  2. Complete name : Eftihia.2019.1080p.HDTV.x264-NoGRP.mkv
  3. Format : Matroska
  4. Format version : Version 4
  5. File size : 6.31 GiB
  6. Duration : 1 h 57 min
  7. Overall bit rate mode : Constant
  8. Overall bit rate : 7 670 kb/s
  9. Encoded date : UTC 2020-03-24 00:24:34
  10. Writing application : TMPGEnc Video Mastering Works 6 Version. 6.2.5.32
  11. Writing library : TMPGEnc Video Mastering Works 6 Version. 6.2.5.32
  12.  
  13. Video
  14. ID : 2
  15. Format : AVC
  16. Format/Info : Advanced Video Codec
  17. Format profile : High@L4
  18. Format settings : CABAC / 5 Ref Frames
  19. Format settings, CABAC : Yes
  20. Format settings, Reference frames : 5 frames
  21. Codec ID : V_MPEG4/ISO/AVC
  22. Duration : 1 h 57 min
  23. Bit rate mode : Constant
  24. Bit rate : 7 326 kb/s
  25. Nominal bit rate : 8 000 kb/s
  26. Width : 1 920 pixels
  27. Height : 800 pixels
  28. Display aspect ratio : 2.40:1
  29. Frame rate mode : Constant
  30. Frame rate : 25.000 FPS
  31. Standard : Component
  32. Color space : YUV
  33. Chroma subsampling : 4:2:0
  34. Bit depth : 8 bits
  35. Scan type : Progressive
  36. Bits/(Pixel*Frame) : 0.191
  37. Stream size : 6.03 GiB (96%)
  38. Writing library : x264 core 148
  39. Encoding settings : cabac=1 / ref=5 / deblock=1:0:0 / analyse=0x3:0x113 / me=umh / subme=8 / psy=1 / psy_rd=1.00:0.00 / mixed_ref=1 / me_range=16 / chroma_me=1 / trellis=1 / 8x8dct=1 / cqm=1 / deadzone=21,11 / fast_pskip=1 / chroma_qp_offset=-2 / threads=12 / lookahead_threads=2 / sliced_threads=0 / slices=1 / nr=0 / decimate=1 / interlaced=0 / minigop=0 / stitchable=1 / constrained_intra=0 / bframes=3 / b_pyramid=0 / b_adapt=2 / b_bias=0 / direct=3 / weightb=1 / open_gop=1 / weightp=2 / keyint=250 / keyint_min=25 / scenecut=40 / intra_refresh=0 / rc_lookahead=50 / rc=cbr / mbtree=1 / bitrate=8000 / ratetol=1.0 / qcomp=0.60 / qpmin=3 / qpmax=69 / qpstep=4 / vbv_maxrate=8000 / vbv_bufsize=8000 / nal_hrd=cbr / filler=1 / ip_ratio=1.40 / aq=1:1.00
  40. Default : Yes
  41. Forced : No
  42. Color range : Limited
  43. Color primaries : BT.709
  44. Transfer characteristics : BT.709
  45. Matrix coefficients : BT.709
  46.  
  47. Audio
  48. ID : 1
  49. Format : AC-3
  50. Format/Info : Audio Coding 3
  51. Commercial name : Dolby Digital
  52. Codec ID : A_AC3
  53. Duration : 1 h 57 min
  54. Bit rate mode : Constant
  55. Bit rate : 192 kb/s
  56. Channel(s) : 2 channels
  57. Channel layout : L R
  58. Sampling rate : 48.0 kHz
  59. Frame rate : 31.250 FPS (1536 SPF)
  60. Compression mode : Lossy
  61. Stream size : 162 MiB (3%)
  62. Service kind : Complete Main
  63. Default : Yes
  64. Forced : No
RAW Paste Data