daily pastebin goal
71%
SHARE
TWEET

Untitled

a guest Nov 3rd, 2016 299 Never
Not a member of Pastebin yet? Sign Up, it unlocks many cool features!
  1. adrianp@odroid:~> ffmpeg -i big_buck_bunny_720p_h264.mov -acodec aac -vcodec h264 -b:v 2M  -pix_fmt nv21 bbb.mp4                                                                                              
  2. ffmpeg version 3.0.2-1ubuntu4 Copyright (c) 2000-2016 the FFmpeg developers
  3.   built with gcc 5.4.0 (Ubuntu/Linaro 5.4.0-6ubuntu1~16.04.2) 20160609
  4.   configuration: --prefix=/usr --extra-version=1ubuntu4 --toolchain=hardened --libdir=/usr/lib/arm-linux-gnueabihf --incdir=/usr/include/arm-linux-gnueabihf --cc=cc --cxx=g++ --enable-gpl --enable-shared --d
  5. isable-stripping --disable-decoder=libopenjpeg --disable-decoder=libschroedinger --enable-avresample --enable-avisynth --enable-gnutls --enable-ladspa --enable-libass --enable-libbluray --enable-libbs2b --en
  6. able-libcaca --enable-libcdio --enable-libflite --enable-libfontconfig --enable-libfreetype --enable-libfribidi --enable-libgme --enable-libgsm --enable-libmodplug --enable-libmp3lame --enable-libopenjpeg --
  7. enable-libopus --enable-libpulse --enable-librubberband --enable-librtmp --enable-libschroedinger --enable-libshine --enable-libsnappy --enable-libsoxr --enable-libspeex --enable-libssh --enable-libtheora --
  8. enable-libtwolame --enable-libvorbis --enable-libvpx --enable-libwavpack --enable-libwebp --enable-libx265 --enable-libxvid --enable-libzvbi --enable-openal --enable-opengl --enable-x11grab --enable-libdc139
  9. 4 --enable-libiec61883 --enable-libzmq --enable-frei0r --enable-chromaprint --enable-libx264
  10.   WARNING: library configuration mismatch
  11.   avcodec     configuration: --prefix=/usr --extra-version=1ubuntu4 --toolchain=hardened --libdir=/usr/lib/arm-linux-gnueabihf --incdir=/usr/include/arm-linux-gnueabihf --cc=cc --cxx=g++ --enable-gpl --enabl
  12. e-shared --disable-stripping --disable-decoder=libopenjpeg --disable-decoder=libschroedinger --enable-avresample --enable-avisynth --enable-gnutls --enable-ladspa --enable-libass --enable-libbluray --enable-
  13. libbs2b --enable-libcaca --enable-libcdio --enable-libflite --enable-libfontconfig --enable-libfreetype --enable-libfribidi --enable-libgme --enable-libgsm --enable-libmodplug --enable-libmp3lame --enable-li
  14. bopenjpeg --enable-libopus --enable-libpulse --enable-librubberband --enable-librtmp --enable-libschroedinger --enable-libshine --enable-libsnappy --enable-libsoxr --enable-libspeex --enable-libssh --enable-
  15. libtheora --enable-libtwolame --enable-libvorbis --enable-libvpx --enable-libwavpack --enable-libwebp --enable-libx265 --enable-libxvid --enable-libzvbi --enable-openal --enable-opengl --enable-x11grab --ena
  16. ble-libdc1394 --enable-libiec61883 --enable-libzmq --enable-frei0r --enable-chromaprint --enable-libx264 --enable-version3 --disable-doc --disable-programs --disable-avdevice --disable-avfilter --disable-avf
  17. ormat --disable-avresample --disable-postproc --disable-swscale --enable-libopencore_amrnb --enable-libopencore_amrwb --enable-libvo_amrwbenc
  18.   libavutil      55. 17.103 / 55. 17.103
  19.   libavcodec     57. 24.102 / 57. 24.102
  20.   libavformat    57. 25.100 / 57. 25.100
  21.   libavdevice    57.  0.101 / 57.  0.101
  22.   libavfilter     6. 31.100 /  6. 31.100
  23.   libavresample   3.  0.  0 /  3.  0.  0
  24.   libswscale      4.  0.100 /  4.  0.100
  25.   libswresample   2.  0.101 /  2.  0.101
  26.   libpostproc    54.  0.100 / 54.  0.100
  27. Input #0, mov,mp4,m4a,3gp,3g2,mj2, from 'big_buck_bunny_720p_h264.mov':
  28.   Metadata:
  29.     major_brand     : qt  
  30.     minor_version   : 537199360
  31.     compatible_brands: qt  
  32.     creation_time   : 2008-05-27 18:36:22
  33.     com.apple.quicktime.player.movie.audio.gain: 1.000000
  34.     com.apple.quicktime.player.movie.audio.treble: 0.000000
  35.     com.apple.quicktime.player.movie.audio.bass: 0.000000
  36.     com.apple.quicktime.player.movie.audio.balance: 0.000000
  37.     com.apple.quicktime.player.movie.audio.pitchshift: 0.000000
  38.     com.apple.quicktime.player.movie.audio.mute:
  39.     com.apple.quicktime.player.movie.audio.pitchshift: 0.000000
  40.     com.apple.quicktime.player.movie.audio.mute:
  41.     com.apple.quicktime.player.movie.visual.brightness: 0.000000
  42.     com.apple.quicktime.player.movie.visual.color: 1.000000
  43.     com.apple.quicktime.player.movie.visual.tint: 0.000000
  44.     com.apple.quicktime.player.movie.visual.contrast: 1.000000
  45.     com.apple.quicktime.player.version: 7.4.1 (14)
  46.     com.apple.quicktime.version: 7.4.1 (14) 0x7418000 (Mac OS X, 10.5.2, 9C31)
  47.     timecode        : 00:00:00:00
  48.   Duration: 00:09:56.46, start: 0.000000, bitrate: 5589 kb/s
  49.     Stream #0:0(eng): Video: h264 (Main) (avc1 / 0x31637661), yuv420p(tv, bt709), 1280x720, 5146 kb/s, 24 fps, 24 tbr, 2400 tbn, 4800 tbc (default)
  50.     Metadata:
  51.       creation_time   : 2008-05-27 18:36:22
  52.       handler_name    : Apple Alias Data Handler
  53.       encoder         : H.264
  54.     Stream #0:1(eng): Data: none (tmcd / 0x64636D74) (default)
  55.     Metadata:
  56.       creation_time   : 2008-05-27 18:36:22
  57.       handler_name    : Apple Alias Data Handler
  58.       timecode        : 00:00:00:00
  59.     Stream #0:2(eng): Audio: aac (LC) (mp4a / 0x6134706D), 48000 Hz, 5.1, fltp, 437 kb/s (default)
  60.     Metadata:
  61.       creation_time   : 2008-05-27 18:36:22
  62.       handler_name    : Apple Alias Data Handler
  63. [h264_v4l2m2m @ 0xc1d50] H264 codec detected, init annexb converter
  64. [h264_v4l2m2m @ 0xc1d50] Device path not set, probing /dev/video*
  65. [h264_v4l2m2m @ 0xc1d50] Using device /dev/video3
  66. [h264_v4l2m2m @ 0xc1d50] Enabling bitrate control if required rate 10027008 > 1
  67. Output #0, mp4, to 'bbb.mp4':
  68.   Metadata:
  69.     major_brand     : qt  
  70.     minor_version   : 537199360
  71.     compatible_brands: qt  
  72.     timecode        : 00:00:00:00
  73.     com.apple.quicktime.player.movie.audio.gain: 1.000000
  74.     com.apple.quicktime.player.movie.audio.treble: 0.000000
  75.     com.apple.quicktime.player.movie.audio.bass: 0.000000
  76.     com.apple.quicktime.player.movie.audio.balance: 0.000000
  77.     com.apple.quicktime.player.movie.audio.pitchshift: 0.000000
  78.     com.apple.quicktime.player.movie.audio.mute:
  79.     com.apple.quicktime.player.movie.visual.brightness: 0.000000
  80.     com.apple.quicktime.player.movie.visual.color: 1.000000
  81.     com.apple.quicktime.player.movie.visual.tint: 0.000000
  82.     com.apple.quicktime.player.movie.visual.contrast: 1.000000
  83.     com.apple.quicktime.player.version: 7.4.1 (14)
  84.     com.apple.quicktime.version: 7.4.1 (14) 0x7418000 (Mac OS X, 10.5.2, 9C31)
  85.     encoder         : Lavf57.25.100
  86.     Stream #0:0(eng): Video: h264 (h264_v4l2m2m) ([33][0][0][0] / 0x0021), nv21, 1280x720, q=2-31, 2000 kb/s, 24 fps, 12288 tbn, 24 tbc (default)
  87.     Metadata:
  88.       creation_time   : 2008-05-27 18:36:22
  89.       handler_name    : Apple Alias Data Handler
  90.       encoder         : Lavc57.24.102 h264_v4l2m2m
  91.     Stream #0:1(eng): Audio: aac (LC) ([64][0][0][0] / 0x0040), 48000 Hz, 5.1, fltp, 341 kb/s (default)
  92.     Metadata:
  93.       creation_time   : 2008-05-27 18:36:22
  94.       handler_name    : Apple Alias Data Handler
  95.       encoder         : Lavc57.24.102 aac
  96. Stream mapping:
  97.   Stream #0:0 -> #0:0 (h264 (native) -> h264 (h264_v4l2m2m))
  98.   Stream #0:2 -> #0:1 (aac (native) -> aac (native))
  99. Press [q] to stop, [?] for help
  100. [h264 @ 0x18fd30] Increasing reorder buffer to 1
  101. [h264_v4l2m2m @ 0xc1d50] Performing useless memcpy() on output pool because buffers do not match
  102. [h264_v4l2m2m @ 0xc1d50] This could be avoided by using av_v4l_buffer_pool_get_buffer*() or av_v4l_buffer_pool_make_pipe()
  103. [mp4 @ 0xc1800] Timestamps are unset in a packet for stream 0. This is deprecated and will stop working in the future. Fix your code to set the timestamps properly
  104. [mp4 @ 0xc1800] Encoder did not produce proper pts, making some up.
  105. frame= 6567 fps= 40 q=-0.0 size=   83160kB time=00:04:34.83 bitrate=2478.7kbits/s speed=1.69x
RAW Paste Data
We use cookies for various purposes including analytics. By continuing to use Pastebin, you agree to our use of cookies as described in the Cookies Policy. OK, I Understand
 
Top