bluecity

Call the Midwife 1080p

Jan 23rd, 2020
132
Never
Not a member of Pastebin yet? Sign Up, it unlocks many cool features!
  1. Per Episode:
  2.  
  3. Format : Matroska
  4. Format version : Version 4 / Version 2
  5. File size : 961 MiB
  6. Duration : 58 min 55 s
  7. Overall bit rate : 2 280 kb/s
  8. Movie name : Call.The.Midwife.S01E01.1080p.WEB-DL.AAC.h.265-d3g
  9. Encoded date : UTC 2017-04-25 14:06:46
  10. Writing application : DVDFab 10.0.3.5
  11. Writing library : libebml v1.3.4 + libmatroska v1.4.5
  12.  
  13. Video
  14. ID : 1
  15. Format : HEVC
  16. Format/Info : High Efficiency Video Coding
  17. Format profile : Main@L4@Main
  18. Codec ID : V_MPEGH/ISO/HEVC
  19. Duration : 58 min 54 s
  20. Bit rate : 2 133 kb/s
  21. Width : 1 912 pixels
  22. Height : 1 072 pixels
  23. Display aspect ratio : 16:9
  24. Frame rate mode : Constant
  25. Frame rate : 25.000 FPS
  26. Color space : YUV
  27. Chroma subsampling : 4:2:0
  28. Bit depth : 8 bits
  29. Bits/(Pixel*Frame) : 0.042
  30. Stream size : 899 MiB (94%)
  31. Default : Yes
  32. Forced : No
  33.  
  34. Audio
  35. ID : 2
  36. Format : AAC
  37. Format/Info : Advanced Audio Codec
  38. Format profile : Main
  39. Codec ID : A_AAC
  40. Duration : 58 min 55 s
  41. Bit rate : 144 kb/s
  42. Channel(s) : 2 channels
  43. Channel positions : Front: L R
  44. Sampling rate : 48.0 kHz
  45. Frame rate : 46.875 FPS (1024 spf)
  46. Compression mode : Lossy
  47. Stream size : 61.2 MiB (6%)
  48. Language : English
  49. Default : Yes
  50. Forced : No
RAW Paste Data