daily pastebin goal
44%
SHARE
TWEET

Untitled

a guest Nov 14th, 2012 18 Never
Not a member of Pastebin yet? Sign Up, it unlocks many cool features!
  1. 11/14/2012, 4:10:09 AM: currentFile: M:\Recorded TV\NBA Basketball_CSNWHD2_2012_11_14_00_30_00.wtv
  2. 11/14/2012, 4:10:09 AM: converting from wtv to avi
  3. 11/14/2012, 4:10:09 AM: callFunc: "convert_wtv2avi"
  4. 11/14/2012, 4:10:09 AM: callFunc: "convertTo_avi"
  5. 11/14/2012, 4:10:09 AM: used profile: [DiVX HQ (*.avi)]
  6. 11/14/2012, 4:10:09 AM: run: "C:\Program Files (x86)\MC-TVConverter\tools\ffmpeg\ffmpeg.exe" -y -i "M:\Recorded TV\NBA Basketball_CSNWHD2_2012_11_14_00_30_00.wtv" -deinterlace -f avi -vcodec mpeg4 -vtag DIVX -qscale 6 -s 720x400 -b 1142k -r 23 -acodec libmp3lame -ar 48000 -ab 124k -ac 2 -async 48000 -vol 380 "M:\Videos\NBA Basketball_CSNWHD2_2012_11_14_00_30_00.wtv.avi"
  7. ffmpeg version N-33308-g6638207, Copyright (c) 2000-2011 the FFmpeg developers
  8.   built on Oct  5 2011 22:56:15 with gcc 4.6.1
  9.   configuration: --enable-gpl --enable-version3 --enable-runtime-cpudetect --enable-avisynth --enable-bzlib --enable-frei0r --enable-libopencore-amrnb --enable-libopencore-amrwb --enable-libfreetype --enable-libgsm --enable-libmp3lame --enable-libopenjpeg --enable-librtmp --enable-libschroedinger --enable-libspeex --enable-libtheora --enable-libvo-aacenc --enable-libvo-amrwbenc --enable-libvorbis --enable-libvpx --enable-libx264 --enable-libxavs --enable-libxvid --enable-zlib
  10.   libavutil    51. 19. 0 / 51. 19. 0
  11.   libavcodec   53. 19. 0 / 53. 19. 0
  12.   libavformat  53. 14. 0 / 53. 14. 0
  13.   libavdevice  53.  4. 0 / 53.  4. 0
  14.   libavfilter   2. 43. 6 /  2. 43. 6
  15.   libswscale    2.  1. 0 /  2.  1. 0
  16.   libpostproc  51.  2. 0 / 51.  2. 0
  17. [wtv @ 03CFE240] unsupported chunk:f71002b9ee7ced4ebd7f0540358618a1
  18. [wtv @ 03CFE240] parser not found for codec dvb_teletext, packets or times may be invalid.
  19. [mpeg2video @ 003DD000] mpeg_decode_postinit() failure
  20.     Last message repeated 13 times
  21. Input #0, wtv, from 'M:\Recorded TV\NBA Basketball_CSNWHD2_2012_11_14_00_30_00.wtv':
  22.   Metadata:
  23.     WM/MediaClassPrimaryID: db9830bd-3ab3-4fab-8a371a995f7ff74b
  24.     WM/MediaClassSecondaryID: ba7f258a-62f7-47a9-b21f4651c42a000e
  25.     Title           : NBA Basketball
  26.     WM/SubTitle     : Portland Trail Blazers at Sacramento Kings
  27.     genre           : Sports;Basketball
  28.     WM/OriginalReleaseTime: 0
  29.     WM/MediaCredits : ;;;
  30.     service_provider: CSNWHD2
  31.     service_name    : Comcast Sportsnet NW HD2
  32.     WM/MediaNetworkAffiliation: Sports Regional
  33.     WM/MediaOriginalChannel: 737
  34.     WM/MediaOriginalChannelSubNumber: 0
  35.     WM/MediaOriginalBroadcastDateTime: 0001-01-01T00:00:00Z
  36.     WM/MediaOriginalRunTime: 125960839844
  37.     WM/MediaIsStereo: false
  38.     WM/MediaIsRepeat: false
  39.     WM/MediaIsLive  : false
  40.     WM/MediaIsTape  : false
  41.     WM/MediaIsDelay : false
  42.     WM/MediaIsSubtitled: false
  43.     WM/MediaIsMovie : false
  44.     WM/MediaIsPremiere: false
  45.     WM/MediaIsFinale: false
  46.     WM/MediaIsSAP   : false
  47.     WM/MediaIsSport : true
  48.     WM/Provider     : MediaCenterDefault
  49.     WM/VideoClosedCaptioning: false
  50.     WM/WMRVEncodeTime: 2012-11-14 08:30:03
  51.     WM/WMRVServiceID: !MCService!223370849
  52.     WM/WMRVProgramID: !MCProgram!282266191
  53.     WM/WMRVRequestID: 0
  54.     WM/WMRVScheduleItemID: 0
  55.     WM/WMRVQuality  : 0
  56.     WM/WMRVOriginalSoftPrePadding: 300
  57.     WM/WMRVOriginalSoftPostPadding: 0
  58.     WM/WMRVHardPrePadding: -300
  59.     WM/WMRVHardPostPadding: 3600
  60.     WM/WMRVATSCContent: true
  61.     WM/WMRVDTVContent: true
  62.     WM/WMRVHDContent: true
  63.     Duration        : 125980556640
  64.     WM/WMRVEndTime  : 2012-11-14 12:00:01
  65.     WM/WMRVBitrate  : 16.803277
  66.     WM/WMRVKeepUntil: 0
  67.     WM/WMRVActualSoftPrePadding: 296
  68.     WM/WMRVActualSoftPostPadding: 1
  69.     WM/WMRVContentProtected: false
  70.     WM/WMRVContentProtectedPercent: 0
  71.     WM/WMRVExpirationSpan: 9223372036854775807
  72.     WM/WMRVInBandRatingSystem: 255
  73.     WM/WMRVInBandRatingLevel: 255
  74.     WM/WMRVInBandRatingAttributes: 0
  75.     WM/WMRVWatched  : false
  76.     WM/MediaThumbWidth: 352
  77.     WM/MediaThumbHeight: 198
  78.     WM/MediaThumbStride: 1056
  79.     WM/MediaThumbRet: 0
  80.     WM/MediaThumbRatingSystem: 255
  81.     WM/MediaThumbRatingLevel: 255
  82.     WM/MediaThumbRatingAttributes: 0
  83.     WM/MediaThumbAspectRatioX: 16
  84.     WM/MediaThumbAspectRatioY: 9
  85.     WM/MediaThumbTimeStamp: 4647655144705781082
  86.   Duration: 03:29:55.89, start: 2.977949, bitrate: 16806 kb/s
  87.     Stream #0:0[0x5e]: Audio: ac3, 48000 Hz, 5.1(side), s16, 384 kb/s
  88.     Stream #0:1[0x5f]: Audio: ac3, 48000 Hz, stereo, s16, 192 kb/s
  89.     Stream #0:2[0x60]: Video: mpeg2video (Main), yuv420p, 1920x1080 [SAR 1:1 DAR 16:9], 38300 kb/s, 78.67 fps, 29.97 tbr, 10000k tbn, 59.94 tbc
  90.     Stream #0:3[0x61]: Subtitle: dvb_teletext
  91. Please use -b:a or -b:v, -b is ambiguous
  92. [buffer @ 043724E0] w:1920 h:1080 pixfmt:yuv420p tb:1/1000000 sar:1/1 sws_param:
  93. [scale @ 04372580] w:1920 h:1080 fmt:yuv420p -> w:720 h:400 fmt:yuv420p flags:0x4
  94. Output #0, avi, to 'M:\Videos\NBA Basketball_CSNWHD2_2012_11_14_00_30_00.wtv.avi':
  95.   Metadata:
  96.     WM/MediaClassPrimaryID: db9830bd-3ab3-4fab-8a371a995f7ff74b
  97.     WM/MediaClassSecondaryID: ba7f258a-62f7-47a9-b21f4651c42a000e
  98.     INAM            : NBA Basketball
  99.     WM/SubTitle     : Portland Trail Blazers at Sacramento Kings
  100.     IGNR            : Sports;Basketball
  101.     WM/OriginalReleaseTime: 0
  102.     ILNG            : en-us
  103.     WM/MediaCredits : ;;;
  104.     service_provider: CSNWHD2
  105.     service_name    : Comcast Sportsnet NW HD2
  106.     WM/MediaNetworkAffiliation: Sports Regional
  107.     WM/MediaOriginalChannel: 737
  108.     WM/MediaOriginalChannelSubNumber: 0
  109.     WM/MediaOriginalBroadcastDateTime: 0001-01-01T00:00:00Z
  110.     WM/MediaOriginalRunTime: 125960839844
  111.     WM/MediaIsStereo: false
  112.     WM/MediaIsRepeat: false
  113.     WM/MediaIsLive  : false
  114.     WM/MediaIsTape  : false
  115.     WM/MediaIsDelay : false
  116.     WM/MediaIsSubtitled: false
  117.     WM/MediaIsMovie : false
  118.     WM/MediaIsPremiere: false
  119.     WM/MediaIsFinale: false
  120.     WM/MediaIsSAP   : false
  121.     WM/MediaIsSport : true
  122.     WM/Provider     : MediaCenterDefault
  123.     WM/VideoClosedCaptioning: false
  124.     WM/WMRVEncodeTime: 2012-11-14 08:30:03
  125.     WM/WMRVServiceID: !MCService!223370849
  126.     WM/WMRVProgramID: !MCProgram!282266191
  127.     WM/WMRVRequestID: 0
  128.     WM/WMRVScheduleItemID: 0
  129.     WM/WMRVQuality  : 0
  130.     WM/WMRVOriginalSoftPrePadding: 300
  131.     WM/WMRVOriginalSoftPostPadding: 0
  132.     WM/WMRVHardPrePadding: -300
  133.     WM/WMRVHardPostPadding: 3600
  134.     WM/WMRVATSCContent: true
  135.     WM/WMRVDTVContent: true
  136.     WM/WMRVHDContent: true
  137.     Duration        : 125980556640
  138.     WM/WMRVEndTime  : 2012-11-14 12:00:01
  139.     WM/WMRVBitrate  : 16.803277
  140.     WM/WMRVKeepUntil: 0
  141.     WM/WMRVActualSoftPrePadding: 296
  142.     WM/WMRVActualSoftPostPadding: 1
  143.     WM/WMRVContentProtected: false
  144.     WM/WMRVContentProtectedPercent: 0
  145.     WM/WMRVExpirationSpan: 9223372036854775807
  146.     WM/WMRVInBandRatingSystem: 255
  147.     WM/WMRVInBandRatingLevel: 255
  148.     WM/WMRVInBandRatingAttributes: 0
  149.     WM/WMRVWatched  : false
  150.     WM/MediaThumbWidth: 352
  151.     WM/MediaThumbHeight: 198
  152.     WM/MediaThumbStride: 1056
  153.     WM/MediaThumbRet: 0
  154.     WM/MediaThumbRatingSystem: 255
  155.     WM/MediaThumbRatingLevel: 255
  156.     WM/MediaThumbRatingAttributes: 0
  157.     WM/MediaThumbAspectRatioX: 16
  158.     WM/MediaThumbAspectRatioY: 9
  159.     WM/MediaThumbTimeStamp: 4647655144705781082
  160.     ISFT            : Lavf53.14.0
  161.     Stream #0:0: Video: mpeg4 (DIVX / 0x58564944), yuv420p, 720x400 [SAR 80:81 DAR 16:9], q=2-31, 1142 kb/s, 23 tbn, 23 tbc
  162.     Stream #0:1: Audio: mp3 (U[0][0][0] / 0x0055), 48000 Hz, 2 channels, s16, 124 kb/s
  163. Stream mapping:
  164.   Stream #0.2 -> #0.0 (mpeg2video -> mpeg4)
  165.   Stream #0.0 -> #0.1 (ac3 -> libmp3lame)
  166. Press [q] to stop, [?] for help
  167. [mpeg2video @ 003DD000] mpeg_decode_postinit() failure
  168. Error while decoding stream #0.2
  169. Input stream #0.0 frame changed from rate:48000 fmt:s16 ch:6 to rate:48000 fmt:s16 ch:2
  170. [mpeg2video @ 003DD000] mpeg_decode_postinit() failure
  171. Error while decoding stream #0.2
  172. [mpeg2video @ 003DD000] mpeg_decode_postinit() failure
  173. Error while decoding stream #0.2
  174. [mpeg2video @ 003DD000] mpeg_decode_postinit() failure
  175. Error while decoding stream #0.2
  176. [mpeg2video @ 003DD000] mpeg_decode_postinit() failure
  177. Error while decoding stream #0.2
  178. [mpeg2video @ 003DD000] mpeg_decode_postinit() failure
  179. Error while decoding stream #0.2
  180. [mpeg2video @ 003DD000] mpeg_decode_postinit() failure
  181. Error while decoding stream #0.2
  182. [mpeg2video @ 003DD000] mpeg_decode_postinit() failure
  183. Error while decoding stream #0.2
  184. [mpeg2video @ 003DD000] mpeg_decode_postinit() failure
  185. Error while decoding stream #0.2
  186. [mpeg2video @ 003DD000] mpeg_decode_postinit() failure
  187. Error while decoding stream #0.2
  188. [mpeg2video @ 003DD000] mpeg_decode_postinit() failure
  189. Error while decoding stream #0.2
  190. [mpeg2video @ 003DD000] mpeg_decode_postinit() failure
  191. Error while decoding stream #0.2
  192. [mpeg2video @ 003DD000] mpeg_decode_postinit() failure
  193. Error while decoding stream #0.2
  194. [mpeg2video @ 003DD000] mpeg_decode_postinit() failure
  195. Error while decoding stream #0.2
  196. frame=   19 fps=  0 q=6.0 size=      58kB time=00:00:01.22 bitrate= 385.6kbits/s dup=0 drop=4
  197. frame=289680 fps= 34 q=6.0 size= 3127597kB time=03:29:55.12 bitrate=2034.2kbits/s dup=0 drop=87784    
  198. ac-tex damaged at 45 56
  199. [mpeg2video @ 003DD000] Warning MVs not available
  200. [mpeg2video @ 003DD000] concealing 1440 DC, 1440 AC, 1440 MV errors
  201. frame=289694 fps= 34 q=6.0 Lsize= 3130312kB time=03:29:55.92 bitrate=2035.9kbits/s dup=0 drop=87789    
  202.  
  203. video:2966737kB audio:147047kB global headers:0kB muxing overhead 0.530790%
  204. 11/14/2012, 6:30:20 AM: ---- file successfully converted: "M:\Videos\NBA Basketball_CSNWHD2_2012_11_14_00_30_00.wtv.avi"
  205. 11/14/2012, 6:30:20 AM: renameFile - get metadata from file: "M:\Recorded TV\NBA Basketball_CSNWHD2_2012_11_14_00_30_00.wtv"
  206. 11/14/2012, 6:30:20 AM: rename file to: "M:\Videos\NBA Basketball - 11-14Portland Trail Blazers at Sacramento Kings.avi"
  207. 11/14/2012, 6:30:20 AM: renameFile - old filename: "M:\Videos\NBA Basketball_CSNWHD2_2012_11_14_00_30_00.wtv.avi"
  208. 11/14/2012, 6:30:20 AM: renameFile - new filename: "M:\Videos\NBA Basketball - 11-14Portland Trail Blazers at Sacramento Kings.avi"
  209. 11/14/2012, 6:30:21 AM: get orig file created date: 20121114003003
  210. 11/14/2012, 6:30:21 AM: set converted file created date to: 20121114003003 - "M:\Videos\NBA Basketball - 11-14Portland Trail Blazers at Sacramento Kings.avi"
  211. 11/14/2012, 6:30:21 AM: move original file: "M:\Recorded TV\NBA Basketball_CSNWHD2_2012_11_14_00_30_00.wtv" - to - "M:\Originals already converted\NBA Basketball_CSNWHD2_2012_11_14_00_30_00.wtv"
  212. 11/14/2012, 6:30:21 AM:
RAW Paste Data
We use cookies for various purposes including analytics. By continuing to use Pastebin, you agree to our use of cookies as described in the Cookies Policy. OK, I Understand
 
Top