SHARE
TWEET

Untitled

a guest Apr 26th, 2019 95 Never
Not a member of Pastebin yet? Sign Up, it unlocks many cool features!
  1. REM GENRE "Alternative Rock"
  2. REM DATE 1997
  3. PERFORMER "Radiohead"
  4. TITLE "OK Computer"
  5. FILE "Radiohead - OK Computer_Side 1.flac" FLAC
  6.   TRACK 01 AUDIO
  7.     TITLE "Airbag"
  8.     PERFORMER "Radiohead"
  9.     INDEX 01 00:00:00
  10.   TRACK 02 AUDIO
  11.     TITLE "Paranoid Android"
  12.     PERFORMER "Radiohead"
  13.     INDEX 01 04:44:00
  14.   TRACK 03 AUDIO
  15.     TITLE "Subterranean Homesick Alien"
  16.     PERFORMER "Radiohead"
  17.     INDEX 01 11:07:00
  18. FILE "Radiohead - OK Computer_Side 2.flac" FLAC
  19.   TRACK 04 AUDIO
  20.     TITLE "Exit Music (For A Film)"
  21.     PERFORMER "Radiohead"
  22.     INDEX 01 00:00:00
  23.   TRACK 05 AUDIO
  24.     TITLE "Let Down"
  25.     PERFORMER "Radiohead"
  26.     INDEX 01 04:25:00
  27.   TRACK 06 AUDIO
  28.     TITLE "Karma Police"
  29.     PERFORMER "Radiohead"
  30.     INDEX 01 09:24:00
  31. FILE "Radiohead - OK Computer_Side 3.flac" FLAC
  32.   TRACK 07 AUDIO
  33.     TITLE "Fitter Happier"
  34.     PERFORMER "Radiohead"
  35.     INDEX 01 00:00:00
  36.   TRACK 08 AUDIO
  37.     TITLE "Electioneering"
  38.     PERFORMER "Radiohead"
  39.     INDEX 01 01:56:00
  40.   TRACK 09 AUDIO
  41.     TITLE "Climbing Up The Walls"
  42.     PERFORMER "Radiohead"
  43.     INDEX 01 05:50:00
  44.   TRACK 10 AUDIO
  45.     TITLE "No Surprises"
  46.     PERFORMER "Radiohead"
  47.     INDEX 01 10:32:00
  48. FILE "Radiohead - OK Computer_Side 4.flac" FLAC
  49.   TRACK 11 AUDIO
  50.     TITLE "Lucky"
  51.     PERFORMER "Radiohead"
  52.     INDEX 01 00:00:00
  53.   TRACK 12 AUDIO
  54.     TITLE "The Tourist"
  55.     PERFORMER "Radiohead"
  56.     INDEX 01 04:20:00
RAW Paste Data
We use cookies for various purposes including analytics. By continuing to use Pastebin, you agree to our use of cookies as described in the Cookies Policy. OK, I Understand
Not a member of Pastebin yet?
Sign Up, it unlocks many cool features!
 
Top