SHARE
TWEET

Untitled

a guest May 4th, 2020 25 Never
Not a member of Pastebin yet? Sign Up, it unlocks many cool features!
  1. ffmpeg version 4.2.2-Matrix-Alpha1-16-g2773f53bb5-Kodi Copyright (c) 2000-2019 the FFmpeg developers
  2.   built with gcc 9.3.0 (GCC)
  3.   configuration: --enable-libdrm --enable-v4l2-request --enable-libudev --enable-static --disable-shared
  4.   libavutil      56. 31.100 / 56. 31.100
  5.   libavcodec     58. 54.100 / 58. 54.100
  6.   libavformat    58. 29.100 / 58. 29.100
  7.   libavdevice    58.  8.100 / 58.  8.100
  8.   libavfilter     7. 57.100 /  7. 57.100
  9.   libswscale      5.  5.100 /  5.  5.100
  10.   libswresample   3.  5.100 /  3.  5.100
  11. Splitting the commandline.
  12. Reading option '-hwaccel' ... matched as option 'hwaccel' (use HW accelerated decoding) with argument 'drm'.
  13. Reading option '-i' ... matched as input url with argument 'bbb_sunflower_2160p_30fps_normal.mp4'.
  14. Reading option '-f' ... matched as option 'f' (force format) with argument 'null'.
  15. Reading option '/dev/null' ... matched as output url.
  16. Reading option '-v' ... matched as option 'v' (set logging level) with argument 'debug'.
  17. Finished splitting the commandline.
  18. Parsing a group of options: global .
  19. Applying option v (set logging level) with argument debug.
  20. Successfully parsed a group of options.
  21. Parsing a group of options: input url bbb_sunflower_2160p_30fps_normal.mp4.
  22. Applying option hwaccel (use HW accelerated decoding) with argument drm.
  23. Successfully parsed a group of options.
  24. Opening an input file: bbb_sunflower_2160p_30fps_normal.mp4.
  25. [NULL @ 0xaaaaf12af5c0] Opening 'bbb_sunflower_2160p_30fps_normal.mp4' for reading
  26. [file @ 0xaaaaf12aff10] Setting default whitelist 'file,crypto'
  27. [mov,mp4,m4a,3gp,3g2,mj2 @ 0xaaaaf12af5c0] Format mov,mp4,m4a,3gp,3g2,mj2 probed with size=2048 and score=100
  28. [mov,mp4,m4a,3gp,3g2,mj2 @ 0xaaaaf12af5c0] ISO: File Type Major Brand: isom
  29. [mov,mp4,m4a,3gp,3g2,mj2 @ 0xaaaaf12af5c0] Unknown dref type 0x206c7275 size 12
  30. [mov,mp4,m4a,3gp,3g2,mj2 @ 0xaaaaf12af5c0] Setting codecpar->delay to 2 for stream st: 0
  31. [mov,mp4,m4a,3gp,3g2,mj2 @ 0xaaaaf12af5c0] Unknown dref type 0x206c7275 size 12
  32.     Last message repeated 1 times
  33. [mov,mp4,m4a,3gp,3g2,mj2 @ 0xaaaaf12af5c0] Before avformat_find_stream_info() pos: 633016415 bytes read:251519 seeks:1 nb_streams:3
  34. [h264 @ 0xaaaaf12b0f30] nal_unit_type: 7(SPS), nal_ref_idc: 3
  35. [h264 @ 0xaaaaf12b0f30] nal_unit_type: 8(PPS), nal_ref_idc: 3
  36. [h264 @ 0xaaaaf12b0f30] nal_unit_type: 6(SEI), nal_ref_idc: 0
  37. [h264 @ 0xaaaaf12b0f30] nal_unit_type: 5(IDR), nal_ref_idc: 3
  38. [h264 @ 0xaaaaf12b0f30] Format yuv420p chosen by get_format().
  39. [h264 @ 0xaaaaf12b0f30] Reinit context to 3840x2160, pix_fmt: yuv420p
  40. [h264 @ 0xaaaaf12b0f30] no picture
  41. [mov,mp4,m4a,3gp,3g2,mj2 @ 0xaaaaf12af5c0] All info found
  42. [mov,mp4,m4a,3gp,3g2,mj2 @ 0xaaaaf12af5c0] After avformat_find_stream_info() pos: 358787 bytes read:382591 seeks:2 frames:38
  43. Input #0, mov,mp4,m4a,3gp,3g2,mj2, from 'bbb_sunflower_2160p_30fps_normal.mp4':
  44.   Metadata:
  45.     major_brand     : isom
  46.     minor_version   : 1
  47.     compatible_brands: isomavc1
  48.     creation_time   : 2013-12-18T14:43:04.000000Z
  49.     title           : Big Buck Bunny, Sunflower version
  50.     artist          : Blender Foundation 2008, Janus Bager Kristensen 2013
  51.     comment         : Creative Commons Attribution 3.0 - http://bbb3d.renderfarming.net
  52.     genre           : Animation
  53.     composer        : Sacha Goedegebure
  54.   Duration: 00:10:34.53, start: 0.000000, bitrate: 7980 kb/s
  55.     Stream #0:0(und), 16, 1/30000: Video: h264 (High), 1 reference frame (avc1 / 0x31637661), yuv420p(left), 3840x2160 [SAR 1:1 DAR 16:9], 0/1, 7498 kb/s, 30 fps, 30 tbr, 30k tbn, 60 tbc (default)
  56.     Metadata:
  57.       creation_time   : 2013-12-18T14:43:04.000000Z
  58.       handler_name    : GPAC ISO Video Handler
  59.     Stream #0:1(und), 21, 1/48000: Audio: mp3 (mp4a / 0x6134706D), 48000 Hz, stereo, fltp, 160 kb/s (default)
  60.     Metadata:
  61.       creation_time   : 2013-12-18T14:43:06.000000Z
  62.       handler_name    : GPAC ISO Audio Handler
  63.     Stream #0:2(und), 1, 1/48000: Audio: ac3 (ac-3 / 0x332D6361), 48000 Hz, 5.1(side), fltp, 320 kb/s (default)
  64.     Metadata:
  65.       creation_time   : 2013-12-18T14:43:06.000000Z
  66.       handler_name    : GPAC ISO Audio Handler
  67.     Side data:
  68.       audio service type: main
  69. Successfully opened the file.
  70. Parsing a group of options: output url /dev/null.
  71. Applying option f (force format) with argument null.
  72. Successfully parsed a group of options.
  73. Opening an output file: /dev/null.
  74. Successfully opened the file.
  75. detected 6 logical cores
  76. [h264 @ 0xaaaaf143c020] nal_unit_type: 7(SPS), nal_ref_idc: 3
  77. [h264 @ 0xaaaaf143c020] nal_unit_type: 8(PPS), nal_ref_idc: 3
  78. Stream mapping:
  79.   Stream #0:0 -> #0:0 (h264 (native) -> wrapped_avframe (native))
  80.   Stream #0:2 -> #0:1 (ac3 (native) -> pcm_s16le (native))
  81. Press [q] to stop, [?] for help
  82. cur_dts is invalid st:0 (0) [init:0 i_done:0 finish:0] (this is harmless if it occurs once at the start per stream)
  83.     Last message repeated 1 times
  84. [h264 @ 0xaaaaf143c020] nal_unit_type: 6(SEI), nal_ref_idc: 0
  85. [h264 @ 0xaaaaf143c020] nal_unit_type: 5(IDR), nal_ref_idc: 3
  86. [h264 @ 0xaaaaf143c020] Format drm_prime chosen by get_format().
  87. [h264 @ 0xaaaaf143c020] Format drm_prime requires hwaccel initialisation.
  88. [h264 @ 0xaaaaf143c020] ff_v4l2_request_init: avctx=0xaaaaf143c020 hw_device_ctx=0xaaaaf12af540 hw_frames_ctx=(nil)
  89. [h264 @ 0xaaaaf143c020] v4l2_request_probe_media_device: avctx=0xaaaaf143c020 ctx=0xffff880479b0 path=/dev/media0 driver=hantro-vpu
  90. [h264 @ 0xaaaaf143c020] v4l2_request_probe_video_device: avctx=0xaaaaf143c020 ctx=0xffff880479b0 path=/dev/video1 capabilities=69222400
  91. [h264 @ 0xaaaaf143c020] v4l2_request_try_format: pixelformat 875967059 not supported for type 10
  92. [h264 @ 0xaaaaf143c020] v4l2_request_probe_video_device: try output format failed
  93. [h264 @ 0xaaaaf143c020] v4l2_request_probe_video_device: avctx=0xaaaaf143c020 ctx=0xffff880479b0 path=/dev/video2 capabilities=69222400
  94. [h264 @ 0xaaaaf143c020] v4l2_request_try_format: pixelformat 875967059 not supported for type 10
  95. [h264 @ 0xaaaaf143c020] v4l2_request_probe_video_device: try output format failed
  96. [h264 @ 0xaaaaf143c020] v4l2_request_probe_media_device: avctx=0xaaaaf143c020 ctx=0xffff880479b0 path=/dev/media1 driver=rkvdec
  97. [h264 @ 0xaaaaf143c020] v4l2_request_probe_video_device: avctx=0xaaaaf143c020 ctx=0xffff880479b0 path=/dev/video3 capabilities=69222400
  98. [h264 @ 0xaaaaf143c020] v4l2_request_init_context: pixelformat=842094158 width=3840 height=2160 bytesperline=3840 sizeimage=16588800 num_planes=1
  99. [h264 @ 0xaaaaf143c020] ff_v4l2_request_frame_params: avctx=0xaaaaf143c020 ctx=0xffff880479b0 hw_frames_ctx=0xffff88048320 hwfc=0xffff88048380 pool=0xffff88045510 width=3840 height=2160 initial_pool_size=3
  100. [h264 @ 0xaaaaf143c020] v4l2_request_frame_alloc: avctx=0xaaaaf143c020 size=792 data=0xffff88048670
  101. [h264 @ 0xaaaaf143c020] v4l2_request_buffer_alloc: avctx=0xaaaaf143c020 buf=0xffff88048888 type=10
  102. [h264 @ 0xaaaaf143c020] v4l2_request_buffer_alloc: pixelformat=875967059 width=3840 height=2160 bytesperline=0 sizeimage=16588800 num_planes=1
  103. [h264 @ 0xaaaaf143c020] v4l2_request_buffer_alloc: buf=0xffff88048888 index=0 fd=-1 addr=0xffff8c102000 width=3840 height=2160 size=16588800
  104. [h264 @ 0xaaaaf143c020] v4l2_request_buffer_alloc: avctx=0xaaaaf143c020 buf=0xffff88048908 type=9
  105. [h264 @ 0xaaaaf143c020] v4l2_request_buffer_alloc: pixelformat=842094158 width=3840 height=2160 bytesperline=3840 sizeimage=16588800 num_planes=1
  106. [h264 @ 0xaaaaf143c020] v4l2_request_buffer_alloc: buf=0xffff88048908 index=0 fd=7 addr=(nil) width=3840 height=2160 size=16588800
  107. [h264 @ 0xaaaaf143c020] v4l2_request_frame_alloc: avctx=0xaaaaf143c020 size=792 data=0xffff88048670 request_fd=8
  108. [h264 @ 0xaaaaf143c020] v4l2_request_frame_alloc: avctx=0xaaaaf143c020 size=792 data=0xffff88048bb0
  109. [h264 @ 0xaaaaf143c020] v4l2_request_buffer_alloc: avctx=0xaaaaf143c020 buf=0xffff88048dc8 type=10
  110. [h264 @ 0xaaaaf143c020] v4l2_request_buffer_alloc: pixelformat=875967059 width=3840 height=2160 bytesperline=0 sizeimage=16588800 num_planes=1
  111. [h264 @ 0xaaaaf143c020] v4l2_request_buffer_alloc: buf=0xffff88048dc8 index=1 fd=-1 addr=0xffff8702e000 width=3840 height=2160 size=16588800
  112. [h264 @ 0xaaaaf143c020] v4l2_request_buffer_alloc: avctx=0xaaaaf143c020 buf=0xffff88048e48 type=9
  113. [h264 @ 0xaaaaf143c020] v4l2_request_buffer_alloc: pixelformat=842094158 width=3840 height=2160 bytesperline=3840 sizeimage=16588800 num_planes=1
  114. [h264 @ 0xaaaaf143c020] v4l2_request_buffer_alloc: buf=0xffff88048e48 index=1 fd=9 addr=(nil) width=3840 height=2160 size=16588800
  115. [h264 @ 0xaaaaf143c020] v4l2_request_frame_alloc: avctx=0xaaaaf143c020 size=792 data=0xffff88048bb0 request_fd=10
  116. [h264 @ 0xaaaaf143c020] v4l2_request_frame_alloc: avctx=0xaaaaf143c020 size=792 data=0xffff88049300
  117. [h264 @ 0xaaaaf143c020] v4l2_request_buffer_alloc: avctx=0xaaaaf143c020 buf=0xffff88049518 type=10
  118. [h264 @ 0xaaaaf143c020] v4l2_request_buffer_alloc: pixelformat=875967059 width=3840 height=2160 bytesperline=0 sizeimage=16588800 num_planes=1
  119. [h264 @ 0xaaaaf143c020] v4l2_request_buffer_alloc: buf=0xffff88049518 index=2 fd=-1 addr=0xffff8605c000 width=3840 height=2160 size=16588800
  120. [h264 @ 0xaaaaf143c020] v4l2_request_buffer_alloc: avctx=0xaaaaf143c020 buf=0xffff88049598 type=9
  121. [h264 @ 0xaaaaf143c020] v4l2_request_buffer_alloc: pixelformat=842094158 width=3840 height=2160 bytesperline=3840 sizeimage=16588800 num_planes=1
  122. [h264 @ 0xaaaaf143c020] v4l2_request_buffer_alloc: buf=0xffff88049598 index=2 fd=11 addr=(nil) width=3840 height=2160 size=16588800
  123. [h264 @ 0xaaaaf143c020] v4l2_request_frame_alloc: avctx=0xaaaaf143c020 size=792 data=0xffff88049300 request_fd=12
  124. [h264 @ 0xaaaaf143c020] v4l2_request_frame_alloc: avctx=0xaaaaf143c020 size=792 data=0xffff880498a0
  125. [h264 @ 0xaaaaf143c020] v4l2_request_buffer_alloc: avctx=0xaaaaf143c020 buf=0xffff88049ab8 type=10
  126. [h264 @ 0xaaaaf143c020] v4l2_request_buffer_alloc: pixelformat=875967059 width=3840 height=2160 bytesperline=0 sizeimage=16588800 num_planes=1
  127. [h264 @ 0xaaaaf143c020] v4l2_request_buffer_alloc: buf=0xffff88049ab8 index=3 fd=-1 addr=0xffff8508a000 width=3840 height=2160 size=16588800
  128. [h264 @ 0xaaaaf143c020] v4l2_request_buffer_alloc: avctx=0xaaaaf143c020 buf=0xffff88049b38 type=9
  129. [h264 @ 0xaaaaf143c020] v4l2_request_buffer_alloc: pixelformat=842094158 width=3840 height=2160 bytesperline=3840 sizeimage=16588800 num_planes=1
  130. [h264 @ 0xaaaaf143c020] v4l2_request_buffer_alloc: buf=0xffff88049b38 index=3 fd=13 addr=(nil) width=3840 height=2160 size=16588800
  131. [h264 @ 0xaaaaf143c020] v4l2_request_frame_alloc: avctx=0xaaaaf143c020 size=792 data=0xffff880498a0 request_fd=14
  132. [h264 @ 0xaaaaf143c020] v4l2_request_frame_alloc: avctx=0xaaaaf143c020 size=792 data=0xffff88049e40
  133. [h264 @ 0xaaaaf143c020] v4l2_request_buffer_alloc: avctx=0xaaaaf143c020 buf=0xffff8804a058 type=10
  134. [h264 @ 0xaaaaf143c020] v4l2_request_buffer_alloc: pixelformat=875967059 width=3840 height=2160 bytesperline=0 sizeimage=16588800 num_planes=1
  135. [h264 @ 0xaaaaf143c020] v4l2_request_buffer_alloc: buf=0xffff8804a058 index=4 fd=-1 addr=0xffff840b8000 width=3840 height=2160 size=16588800
  136. [h264 @ 0xaaaaf143c020] v4l2_request_buffer_alloc: avctx=0xaaaaf143c020 buf=0xffff8804a0d8 type=9
  137. [h264 @ 0xaaaaf143c020] v4l2_request_buffer_alloc: pixelformat=842094158 width=3840 height=2160 bytesperline=3840 sizeimage=16588800 num_planes=1
  138. [h264 @ 0xaaaaf143c020] v4l2_request_buffer_alloc: buf=0xffff8804a0d8 index=4 fd=15 addr=(nil) width=3840 height=2160 size=16588800
  139. [h264 @ 0xaaaaf143c020] v4l2_request_frame_alloc: avctx=0xaaaaf143c020 size=792 data=0xffff88049e40 request_fd=16
  140. [h264 @ 0xaaaaf143c020] v4l2_request_frame_alloc: avctx=0xaaaaf143c020 size=792 data=0xffff8804a3e0
  141. [h264 @ 0xaaaaf143c020] v4l2_request_buffer_alloc: avctx=0xaaaaf143c020 buf=0xffff8804a5f8 type=10
  142. [h264 @ 0xaaaaf143c020] v4l2_request_buffer_alloc: pixelformat=875967059 width=3840 height=2160 bytesperline=0 sizeimage=16588800 num_planes=1
  143. [h264 @ 0xaaaaf143c020] v4l2_request_buffer_alloc: buf=0xffff8804a5f8 index=5 fd=-1 addr=0xffff830e6000 width=3840 height=2160 size=16588800
  144. [h264 @ 0xaaaaf143c020] v4l2_request_buffer_alloc: avctx=0xaaaaf143c020 buf=0xffff8804a678 type=9
  145. [h264 @ 0xaaaaf143c020] v4l2_request_buffer_alloc: pixelformat=842094158 width=3840 height=2160 bytesperline=3840 sizeimage=16588800 num_planes=1
  146. [h264 @ 0xaaaaf143c020] v4l2_request_buffer_alloc: buf=0xffff8804a678 index=5 fd=17 addr=(nil) width=3840 height=2160 size=16588800
  147. [h264 @ 0xaaaaf143c020] v4l2_request_frame_alloc: avctx=0xaaaaf143c020 size=792 data=0xffff8804a3e0 request_fd=18
  148. [h264 @ 0xaaaaf143c020] v4l2_request_frame_alloc: avctx=0xaaaaf143c020 size=792 data=0xffff8804a980
  149. [h264 @ 0xaaaaf143c020] v4l2_request_buffer_alloc: avctx=0xaaaaf143c020 buf=0xffff8804ab98 type=10
  150. [h264 @ 0xaaaaf143c020] v4l2_request_buffer_alloc: pixelformat=875967059 width=3840 height=2160 bytesperline=0 sizeimage=16588800 num_planes=1
  151. [h264 @ 0xaaaaf143c020] v4l2_request_buffer_alloc: buf=0xffff8804ab98 index=6 fd=-1 addr=0xffff82114000 width=3840 height=2160 size=16588800
  152. [h264 @ 0xaaaaf143c020] v4l2_request_buffer_alloc: avctx=0xaaaaf143c020 buf=0xffff8804ac18 type=9
  153. [h264 @ 0xaaaaf143c020] v4l2_request_buffer_alloc: pixelformat=842094158 width=3840 height=2160 bytesperline=3840 sizeimage=16588800 num_planes=1
  154. [h264 @ 0xaaaaf143c020] v4l2_request_buffer_alloc: buf=0xffff8804ac18 index=6 fd=19 addr=(nil) width=3840 height=2160 size=16588800
  155. [h264 @ 0xaaaaf143c020] v4l2_request_frame_alloc: avctx=0xaaaaf143c020 size=792 data=0xffff8804a980 request_fd=20
  156. [h264 @ 0xaaaaf143c020] v4l2_request_frame_alloc: avctx=0xaaaaf143c020 size=792 data=0xffff8804af20
  157. [h264 @ 0xaaaaf143c020] v4l2_request_buffer_alloc: avctx=0xaaaaf143c020 buf=0xffff8804b138 type=10
  158. [h264 @ 0xaaaaf143c020] v4l2_request_buffer_alloc: pixelformat=875967059 width=3840 height=2160 bytesperline=0 sizeimage=16588800 num_planes=1
  159. [h264 @ 0xaaaaf143c020] v4l2_request_buffer_alloc: buf=0xffff8804b138 index=7 fd=-1 addr=0xffff81142000 width=3840 height=2160 size=16588800
  160. [h264 @ 0xaaaaf143c020] v4l2_request_buffer_alloc: avctx=0xaaaaf143c020 buf=0xffff8804b1b8 type=9
  161. [h264 @ 0xaaaaf143c020] v4l2_request_buffer_alloc: pixelformat=842094158 width=3840 height=2160 bytesperline=3840 sizeimage=16588800 num_planes=1
  162. [h264 @ 0xaaaaf143c020] v4l2_request_buffer_alloc: buf=0xffff8804b1b8 index=7 fd=21 addr=(nil) width=3840 height=2160 size=16588800
  163. [h264 @ 0xaaaaf143c020] v4l2_request_frame_alloc: avctx=0xaaaaf143c020 size=792 data=0xffff8804af20 request_fd=22
  164. [h264 @ 0xaaaaf143c020] v4l2_request_frame_alloc: avctx=0xaaaaf143c020 size=792 data=0xffff8804b4c0
  165. [h264 @ 0xaaaaf143c020] v4l2_request_buffer_alloc: avctx=0xaaaaf143c020 buf=0xffff8804b6d8 type=10
  166. [h264 @ 0xaaaaf143c020] v4l2_request_buffer_alloc: pixelformat=875967059 width=3840 height=2160 bytesperline=0 sizeimage=16588800 num_planes=1
  167. [h264 @ 0xaaaaf143c020] v4l2_request_buffer_alloc: buf=0xffff8804b6d8 index=8 fd=-1 addr=0xffff80170000 width=3840 height=2160 size=16588800
  168. [h264 @ 0xaaaaf143c020] v4l2_request_buffer_alloc: avctx=0xaaaaf143c020 buf=0xffff8804b758 type=9
  169. [h264 @ 0xaaaaf143c020] v4l2_request_buffer_alloc: pixelformat=842094158 width=3840 height=2160 bytesperline=3840 sizeimage=16588800 num_planes=1
  170. [h264 @ 0xaaaaf143c020] v4l2_request_buffer_alloc: buf=0xffff8804b758 index=8 fd=23 addr=(nil) width=3840 height=2160 size=16588800
  171. [h264 @ 0xaaaaf143c020] v4l2_request_frame_alloc: avctx=0xaaaaf143c020 size=792 data=0xffff8804b4c0 request_fd=24
  172. [h264 @ 0xaaaaf143c020] v4l2_request_frame_alloc: avctx=0xaaaaf143c020 size=792 data=0xffff8804ba60
  173. [h264 @ 0xaaaaf143c020] v4l2_request_buffer_alloc: avctx=0xaaaaf143c020 buf=0xffff8804bc78 type=10
  174. [h264 @ 0xaaaaf143c020] v4l2_request_buffer_alloc: pixelformat=875967059 width=3840 height=2160 bytesperline=0 sizeimage=16588800 num_planes=1
  175. [h264 @ 0xaaaaf143c020] v4l2_request_buffer_alloc: buf=0xffff8804bc78 index=9 fd=-1 addr=0xffff7f19e000 width=3840 height=2160 size=16588800
  176. [h264 @ 0xaaaaf143c020] v4l2_request_buffer_alloc: avctx=0xaaaaf143c020 buf=0xffff8804bcf8 type=9
  177. [h264 @ 0xaaaaf143c020] v4l2_request_buffer_alloc: pixelformat=842094158 width=3840 height=2160 bytesperline=3840 sizeimage=16588800 num_planes=1
  178. [h264 @ 0xaaaaf143c020] v4l2_request_buffer_alloc: buf=0xffff8804bcf8 index=9 fd=25 addr=(nil) width=3840 height=2160 size=16588800
  179. [h264 @ 0xaaaaf143c020] v4l2_request_frame_alloc: avctx=0xaaaaf143c020 size=792 data=0xffff8804ba60 request_fd=26
  180. [h264 @ 0xaaaaf143c020] v4l2_request_frame_alloc: avctx=0xaaaaf143c020 size=792 data=0xffff8804c000
  181. [h264 @ 0xaaaaf143c020] v4l2_request_buffer_alloc: avctx=0xaaaaf143c020 buf=0xffff8804c218 type=10
  182. [h264 @ 0xaaaaf143c020] v4l2_request_buffer_alloc: pixelformat=875967059 width=3840 height=2160 bytesperline=0 sizeimage=16588800 num_planes=1
  183. [h264 @ 0xaaaaf143c020] v4l2_request_buffer_alloc: buf=0xffff8804c218 index=10 fd=-1 addr=0xffff7e1cc000 width=3840 height=2160 size=16588800
  184. [h264 @ 0xaaaaf143c020] v4l2_request_buffer_alloc: avctx=0xaaaaf143c020 buf=0xffff8804c298 type=9
  185. [h264 @ 0xaaaaf143c020] v4l2_request_buffer_alloc: pixelformat=842094158 width=3840 height=2160 bytesperline=3840 sizeimage=16588800 num_planes=1
  186. [h264 @ 0xaaaaf143c020] v4l2_request_buffer_alloc: buf=0xffff8804c298 index=10 fd=27 addr=(nil) width=3840 height=2160 size=16588800
  187. [h264 @ 0xaaaaf143c020] v4l2_request_frame_alloc: avctx=0xaaaaf143c020 size=792 data=0xffff8804c000 request_fd=28
  188. [h264 @ 0xaaaaf143c020] v4l2_request_frame_alloc: avctx=0xaaaaf143c020 size=792 data=0xffff8804c5a0
  189. [h264 @ 0xaaaaf143c020] v4l2_request_buffer_alloc: avctx=0xaaaaf143c020 buf=0xffff8804c7b8 type=10
  190. [h264 @ 0xaaaaf143c020] v4l2_request_buffer_alloc: pixelformat=875967059 width=3840 height=2160 bytesperline=0 sizeimage=16588800 num_planes=1
  191. [h264 @ 0xaaaaf143c020] v4l2_request_buffer_alloc: buf=0xffff8804c7b8 index=11 fd=-1 addr=0xffff7d1fa000 width=3840 height=2160 size=16588800
  192. [h264 @ 0xaaaaf143c020] v4l2_request_buffer_alloc: avctx=0xaaaaf143c020 buf=0xffff8804c838 type=9
  193. [h264 @ 0xaaaaf143c020] v4l2_request_buffer_alloc: pixelformat=842094158 width=3840 height=2160 bytesperline=3840 sizeimage=16588800 num_planes=1
  194. [h264 @ 0xaaaaf143c020] v4l2_request_buffer_alloc: buf=0xffff8804c838 index=11 fd=29 addr=(nil) width=3840 height=2160 size=16588800
  195. [h264 @ 0xaaaaf143c020] v4l2_request_frame_alloc: avctx=0xaaaaf143c020 size=792 data=0xffff8804c5a0 request_fd=30
  196. [h264 @ 0xaaaaf143c020] v4l2_request_frame_alloc: avctx=0xaaaaf143c020 size=792 data=0xffff8804cb40
  197. [h264 @ 0xaaaaf143c020] v4l2_request_buffer_alloc: avctx=0xaaaaf143c020 buf=0xffff8804cd58 type=10
  198. [h264 @ 0xaaaaf143c020] v4l2_request_buffer_alloc: pixelformat=875967059 width=3840 height=2160 bytesperline=0 sizeimage=16588800 num_planes=1
  199. [h264 @ 0xaaaaf143c020] v4l2_request_buffer_alloc: buf=0xffff8804cd58 index=12 fd=-1 addr=0xffff7c228000 width=3840 height=2160 size=16588800
  200. [h264 @ 0xaaaaf143c020] v4l2_request_buffer_alloc: avctx=0xaaaaf143c020 buf=0xffff8804cdd8 type=9
  201. [h264 @ 0xaaaaf143c020] v4l2_request_buffer_alloc: pixelformat=842094158 width=3840 height=2160 bytesperline=3840 sizeimage=16588800 num_planes=1
  202. [h264 @ 0xaaaaf143c020] v4l2_request_buffer_alloc: buf=0xffff8804cdd8 index=12 fd=31 addr=(nil) width=3840 height=2160 size=16588800
  203. [h264 @ 0xaaaaf143c020] v4l2_request_frame_alloc: avctx=0xaaaaf143c020 size=792 data=0xffff8804cb40 request_fd=32
  204. [h264 @ 0xaaaaf143c020] Reinit context to 3840x2160, pix_fmt: drm_prime
  205. [h264 @ 0xaaaaf143c020] no picture
  206. [h264 @ 0xaaaaf143c020] v4l2_request_queue_decode: avctx=0xaaaaf143c020 used=1528 controls=5 index=12 fd=31 request_fd=32 first_slice=1 last_slice=1
  207. cur_dts is invalid st:0 (0) [init:0 i_done:0 finish:0] (this is harmless if it occurs once at the start per stream)
  208. [h264 @ 0xaaaaf12da860] nal_unit_type: 1(Coded slice of a non-IDR picture), nal_ref_idc: 2
  209. [h264 @ 0xaaaaf12da860] no picture
  210. [h264 @ 0xaaaaf12da860] v4l2_request_queue_decode: avctx=0xaaaaf12da860 used=23823 controls=5 index=11 fd=29 request_fd=30 first_slice=1 last_slice=1
  211. frame=    0 fps=0.0 q=0.0 size=N/A time=-577014:32:22.77 bitrate=N/A speed=N/A    
  212. cur_dts is invalid st:0 (0) [init:0 i_done:0 finish:0] (this is harmless if it occurs once at the start per stream)
  213. [h264 @ 0xaaaaf141a710] nal_unit_type: 1(Coded slice of a non-IDR picture), nal_ref_idc: 2
  214. [h264 @ 0xaaaaf141a710] v4l2_request_queue_decode: avctx=0xaaaaf141a710 used=22079 controls=5 index=10 fd=27 request_fd=28 first_slice=1 last_slice=1
  215. cur_dts is invalid st:0 (0) [init:0 i_done:0 finish:0] (this is harmless if it occurs once at the start per stream)
  216. [h264 @ 0xaaaaf12e1380] nal_unit_type: 1(Coded slice of a non-IDR picture), nal_ref_idc: 2
  217. [h264 @ 0xaaaaf12e1380] v4l2_request_queue_decode: avctx=0xaaaaf12e1380 used=28761 controls=5 index=9 fd=25 request_fd=26 first_slice=1 last_slice=1
  218. cur_dts is invalid st:0 (0) [init:0 i_done:0 finish:0] (this is harmless if it occurs once at the start per stream)
  219. [h264 @ 0xaaaaf12e6cd0] nal_unit_type: 1(Coded slice of a non-IDR picture), nal_ref_idc: 0
  220. [h264 @ 0xaaaaf12e6cd0] v4l2_request_queue_decode: avctx=0xaaaaf12e6cd0 used=1833 controls=5 index=8 fd=23 request_fd=24 first_slice=1 last_slice=1
  221. cur_dts is invalid st:0 (0) [init:0 i_done:0 finish:0] (this is harmless if it occurs once at the start per stream)
  222. [h264 @ 0xaaaaf13465e0] nal_unit_type: 1(Coded slice of a non-IDR picture), nal_ref_idc: 2
  223. [h264 @ 0xaaaaf13465e0] v4l2_request_queue_decode: avctx=0xaaaaf13465e0 used=18134 controls=5 index=7 fd=21 request_fd=22 first_slice=1 last_slice=1
  224. cur_dts is invalid st:0 (0) [init:0 i_done:0 finish:0] (this is harmless if it occurs once at the start per stream)
  225. [h264 @ 0xaaaaf1361b90] nal_unit_type: 1(Coded slice of a non-IDR picture), nal_ref_idc: 2
  226. [h264 @ 0xaaaaf1361b90] v4l2_request_queue_decode: avctx=0xaaaaf1361b90 used=1168 controls=5 index=6 fd=19 request_fd=20 first_slice=1 last_slice=1
  227. cur_dts is invalid st:0 (0) [init:0 i_done:0 finish:0] (this is harmless if it occurs once at the start per stream)
  228. [h264 @ 0xaaaaf143c020] nal_unit_type: 1(Coded slice of a non-IDR picture), nal_ref_idc: 0
  229. [h264 @ 0xaaaaf143c020] v4l2_request_queue_decode: avctx=0xaaaaf143c020 used=269 controls=5 index=5 fd=17 request_fd=18 first_slice=1 last_slice=1
  230. [h264 @ 0xaaaaf12da860] nal_unit_type: 1(Coded slice of a non-IDR picture), nal_ref_idc: 2
  231. [h264 @ 0xaaaaf12da860] v4l2_request_queue_decode: avctx=0xaaaaf12da860 used=3536 controls=5 index=4 fd=15 request_fd=16 first_slice=1 last_slice=1
  232. [graph 0 input from stream 0:0 @ 0xaaaaf141dc80] Setting 'video_size' to value '3840x2160'
  233. [graph 0 input from stream 0:0 @ 0xaaaaf141dc80] Setting 'pix_fmt' to value '23'
  234. [graph 0 input from stream 0:0 @ 0xaaaaf141dc80] Setting 'time_base' to value '1/30000'
  235. [graph 0 input from stream 0:0 @ 0xaaaaf141dc80] Setting 'pixel_aspect' to value '1/1'
  236. [graph 0 input from stream 0:0 @ 0xaaaaf141dc80] Setting 'sws_param' to value 'flags=2'
  237. [graph 0 input from stream 0:0 @ 0xaaaaf141dc80] Setting 'frame_rate' to value '30/1'
  238. [graph 0 input from stream 0:0 @ 0xaaaaf141dc80] w:3840 h:2160 pixfmt:nv12 tb:1/30000 fr:30/1 sar:1/1 sws_param:flags=2
  239. [AVFilterGraph @ 0xaaaaf142b200] query_formats: 3 queried, 2 merged, 0 already done, 0 delayed
  240. cur_dts is invalid st:0 (0) [init:1 i_done:0 finish:0] (this is harmless if it occurs once at the start per stream)
  241. cur_dts is invalid st:1 (0) [init:0 i_done:0 finish:0] (this is harmless if it occurs once at the start per stream)
  242. [h264 @ 0xaaaaf141a710] nal_unit_type: 1(Coded slice of a non-IDR picture), nal_ref_idc: 2
  243. [h264 @ 0xaaaaf141a710] v4l2_request_queue_decode: avctx=0xaaaaf141a710 used=1058 controls=5 index=3 fd=13 request_fd=14 first_slice=1 last_slice=1
  244. cur_dts is invalid st:0 (0) [init:1 i_done:0 finish:0] (this is harmless if it occurs once at the start per stream)
  245. cur_dts is invalid st:1 (0) [init:0 i_done:0 finish:0] (this is harmless if it occurs once at the start per stream)
  246. [h264 @ 0xaaaaf12e1380] nal_unit_type: 1(Coded slice of a non-IDR picture), nal_ref_idc: 0
  247. [h264 @ 0xaaaaf12e1380] v4l2_request_queue_decode: avctx=0xaaaaf12e1380 used=989 controls=5 index=12 fd=31 request_fd=32 first_slice=1 last_slice=1
  248. cur_dts is invalid st:0 (0) [init:1 i_done:0 finish:0] (this is harmless if it occurs once at the start per stream)
  249. cur_dts is invalid st:1 (0) [init:0 i_done:0 finish:0] (this is harmless if it occurs once at the start per stream)
  250. [h264 @ 0xaaaaf12e6cd0] nal_unit_type: 1(Coded slice of a non-IDR picture), nal_ref_idc: 0
  251. [h264 @ 0xaaaaf12e6cd0] v4l2_request_queue_decode: avctx=0xaaaaf12e6cd0 used=830 controls=5 index=2 fd=11 request_fd=12 first_slice=1 last_slice=1
  252. cur_dts is invalid st:0 (0) [init:1 i_done:0 finish:0] (this is harmless if it occurs once at the start per stream)
  253. cur_dts is invalid st:1 (0) [init:0 i_done:0 finish:0] (this is harmless if it occurs once at the start per stream)
  254. [h264 @ 0xaaaaf13465e0] nal_unit_type: 1(Coded slice of a non-IDR picture), nal_ref_idc: 0
  255. [h264 @ 0xaaaaf13465e0] v4l2_request_queue_decode: avctx=0xaaaaf13465e0 used=849 controls=5 index=8 fd=23 request_fd=24 first_slice=1 last_slice=1
  256. cur_dts is invalid st:0 (0) [init:1 i_done:0 finish:0] (this is harmless if it occurs once at the start per stream)
  257. cur_dts is invalid st:1 (0) [init:0 i_done:0 finish:0] (this is harmless if it occurs once at the start per stream)
  258. [h264 @ 0xaaaaf1361b90] nal_unit_type: 1(Coded slice of a non-IDR picture), nal_ref_idc: 2
  259. [h264 @ 0xaaaaf1361b90] v4l2_request_queue_decode: avctx=0xaaaaf1361b90 used=2950 controls=5 index=11 fd=29 request_fd=30 first_slice=1 last_slice=1
  260. frame=    6 fps=4.8 q=0.0 size=N/A time=-577014:32:22.77 bitrate=N/A speed=N/A    
  261. cur_dts is invalid st:0 (0) [init:1 i_done:0 finish:0] (this is harmless if it occurs once at the start per stream)
  262. cur_dts is invalid st:1 (0) [init:0 i_done:0 finish:0] (this is harmless if it occurs once at the start per stream)
  263. [h264 @ 0xaaaaf143c020] nal_unit_type: 1(Coded slice of a non-IDR picture), nal_ref_idc: 2
  264. [h264 @ 0xaaaaf143c020] v4l2_request_queue_decode: avctx=0xaaaaf143c020 used=731 controls=5 index=5 fd=17 request_fd=18 first_slice=1 last_slice=1
  265. cur_dts is invalid st:0 (0) [init:1 i_done:0 finish:0] (this is harmless if it occurs once at the start per stream)
  266. cur_dts is invalid st:1 (0) [init:0 i_done:0 finish:0] (this is harmless if it occurs once at the start per stream)
  267. [h264 @ 0xaaaaf12da860] nal_unit_type: 1(Coded slice of a non-IDR picture), nal_ref_idc: 0
  268. [h264 @ 0xaaaaf12da860] v4l2_request_queue_decode: avctx=0xaaaaf12da860 used=1014 controls=5 index=10 fd=27 request_fd=28 first_slice=1 last_slice=1
  269. cur_dts is invalid st:0 (0) [init:1 i_done:0 finish:0] (this is harmless if it occurs once at the start per stream)
  270. cur_dts is invalid st:1 (0) [init:0 i_done:0 finish:0] (this is harmless if it occurs once at the start per stream)
  271. cur_dts is invalid st:0 (0) [init:1 i_done:0 finish:0] (this is harmless if it occurs once at the start per stream)
  272. cur_dts is invalid st:1 (0) [init:0 i_done:0 finish:0] (this is harmless if it occurs once at the start per stream)
  273. cur_dts is invalid st:0 (0) [init:1 i_done:0 finish:0] (this is harmless if it occurs once at the start per stream)
  274. cur_dts is invalid st:1 (0) [init:0 i_done:0 finish:0] (this is harmless if it occurs once at the start per stream)
  275. cur_dts is invalid st:0 (0) [init:1 i_done:0 finish:0] (this is harmless if it occurs once at the start per stream)
  276. cur_dts is invalid st:1 (0) [init:0 i_done:0 finish:0] (this is harmless if it occurs once at the start per stream)
  277. cur_dts is invalid st:0 (0) [init:1 i_done:0 finish:0] (this is harmless if it occurs once at the start per stream)
  278. cur_dts is invalid st:1 (0) [init:0 i_done:0 finish:0] (this is harmless if it occurs once at the start per stream)
  279. cur_dts is invalid st:0 (0) [init:1 i_done:0 finish:0] (this is harmless if it occurs once at the start per stream)
  280. cur_dts is invalid st:1 (0) [init:0 i_done:0 finish:0] (this is harmless if it occurs once at the start per stream)
  281. cur_dts is invalid st:0 (0) [init:1 i_done:0 finish:0] (this is harmless if it occurs once at the start per stream)
  282. cur_dts is invalid st:1 (0) [init:0 i_done:0 finish:0] (this is harmless if it occurs once at the start per stream)
  283. cur_dts is invalid st:0 (0) [init:1 i_done:0 finish:0] (this is harmless if it occurs once at the start per stream)
  284. cur_dts is invalid st:1 (0) [init:0 i_done:0 finish:0] (this is harmless if it occurs once at the start per stream)
  285. cur_dts is invalid st:0 (0) [init:1 i_done:0 finish:0] (this is harmless if it occurs once at the start per stream)
  286. cur_dts is invalid st:1 (0) [init:0 i_done:0 finish:0] (this is harmless if it occurs once at the start per stream)
  287. cur_dts is invalid st:0 (0) [init:1 i_done:0 finish:0] (this is harmless if it occurs once at the start per stream)
  288. cur_dts is invalid st:1 (0) [init:0 i_done:0 finish:0] (this is harmless if it occurs once at the start per stream)
  289. cur_dts is invalid st:0 (0) [init:1 i_done:0 finish:0] (this is harmless if it occurs once at the start per stream)
  290. cur_dts is invalid st:1 (0) [init:0 i_done:0 finish:0] (this is harmless if it occurs once at the start per stream)
  291. cur_dts is invalid st:0 (0) [init:1 i_done:0 finish:0] (this is harmless if it occurs once at the start per stream)
  292. cur_dts is invalid st:1 (0) [init:0 i_done:0 finish:0] (this is harmless if it occurs once at the start per stream)
  293. cur_dts is invalid st:0 (0) [init:1 i_done:0 finish:0] (this is harmless if it occurs once at the start per stream)
  294. cur_dts is invalid st:1 (0) [init:0 i_done:0 finish:0] (this is harmless if it occurs once at the start per stream)
  295. cur_dts is invalid st:0 (0) [init:1 i_done:0 finish:0] (this is harmless if it occurs once at the start per stream)
  296. cur_dts is invalid st:1 (0) [init:0 i_done:0 finish:0] (this is harmless if it occurs once at the start per stream)
  297. cur_dts is invalid st:0 (0) [init:1 i_done:0 finish:0] (this is harmless if it occurs once at the start per stream)
  298. cur_dts is invalid st:1 (0) [init:0 i_done:0 finish:0] (this is harmless if it occurs once at the start per stream)
  299. cur_dts is invalid st:0 (0) [init:1 i_done:0 finish:0] (this is harmless if it occurs once at the start per stream)
  300. cur_dts is invalid st:1 (0) [init:0 i_done:0 finish:0] (this is harmless if it occurs once at the start per stream)
  301. cur_dts is invalid st:0 (0) [init:1 i_done:0 finish:0] (this is harmless if it occurs once at the start per stream)
  302. cur_dts is invalid st:1 (0) [init:0 i_done:0 finish:0] (this is harmless if it occurs once at the start per stream)
  303. cur_dts is invalid st:0 (0) [init:1 i_done:0 finish:0] (this is harmless if it occurs once at the start per stream)
  304. cur_dts is invalid st:1 (0) [init:0 i_done:0 finish:0] (this is harmless if it occurs once at the start per stream)
  305. cur_dts is invalid st:0 (0) [init:1 i_done:0 finish:0] (this is harmless if it occurs once at the start per stream)
  306. cur_dts is invalid st:1 (0) [init:0 i_done:0 finish:0] (this is harmless if it occurs once at the start per stream)
  307. cur_dts is invalid st:0 (0) [init:1 i_done:0 finish:0] (this is harmless if it occurs once at the start per stream)
  308. cur_dts is invalid st:1 (0) [init:0 i_done:0 finish:0] (this is harmless if it occurs once at the start per stream)
  309. cur_dts is invalid st:0 (0) [init:1 i_done:0 finish:0] (this is harmless if it occurs once at the start per stream)
  310. cur_dts is invalid st:1 (0) [init:0 i_done:0 finish:0] (this is harmless if it occurs once at the start per stream)
  311. cur_dts is invalid st:0 (0) [init:1 i_done:0 finish:0] (this is harmless if it occurs once at the start per stream)
  312. cur_dts is invalid st:1 (0) [init:0 i_done:0 finish:0] (this is harmless if it occurs once at the start per stream)
  313. [graph_1_in_0_2 @ 0xaaaaf14383a0] Setting 'time_base' to value '1/48000'
  314. [graph_1_in_0_2 @ 0xaaaaf14383a0] Setting 'sample_rate' to value '48000'
  315. [graph_1_in_0_2 @ 0xaaaaf14383a0] Setting 'sample_fmt' to value 'fltp'
  316. [graph_1_in_0_2 @ 0xaaaaf14383a0] Setting 'channel_layout' to value '0x60f'
  317. [graph_1_in_0_2 @ 0xaaaaf14383a0] tb:1/48000 samplefmt:fltp samplerate:48000 chlayout:0x60f
  318. [format_out_0_1 @ 0xaaaaf14403b0] Setting 'sample_fmts' to value 's16'
  319. [format_out_0_1 @ 0xaaaaf14403b0] auto-inserting filter 'auto_resampler_0' between the filter 'Parsed_anull_0' and the filter 'format_out_0_1'
  320. [AVFilterGraph @ 0xaaaaf1438f60] query_formats: 4 queried, 6 merged, 3 already done, 0 delayed
  321. [auto_resampler_0 @ 0xaaaaf1440850] [SWR @ 0xaaaaf26eda20] Using fltp internally between filters
  322. [auto_resampler_0 @ 0xaaaaf1440850] ch:6 chl:5.1(side) fmt:fltp r:48000Hz -> ch:6 chl:5.1(side) fmt:s16 r:48000Hz
  323. Output #0, null, to '/dev/null':
  324.   Metadata:
  325.     major_brand     : isom
  326.     minor_version   : 1
  327.     compatible_brands: isomavc1
  328.     composer        : Sacha Goedegebure
  329.     title           : Big Buck Bunny, Sunflower version
  330.     artist          : Blender Foundation 2008, Janus Bager Kristensen 2013
  331.     comment         : Creative Commons Attribution 3.0 - http://bbb3d.renderfarming.net
  332.     genre           : Animation
  333.     encoder         : Lavf58.29.100
  334.     Stream #0:0(und), 0, 1/30: Video: wrapped_avframe, 1 reference frame, nv12(progressive, left), 3840x2160 [SAR 1:1 DAR 16:9], 0/1, q=2-31, 200 kb/s, 30 fps, 30 tbn, 30 tbc (default)
  335.     Metadata:
  336.       creation_time   : 2013-12-18T14:43:04.000000Z
  337.       handler_name    : GPAC ISO Video Handler
  338.       encoder         : Lavc58.54.100 wrapped_avframe
  339.     Stream #0:1(und), 0, 1/48000: Audio: pcm_s16le, 48000 Hz, 5.1(side), s16, 4608 kb/s (default)
  340.     Metadata:
  341.       creation_time   : 2013-12-18T14:43:06.000000Z
  342.       handler_name    : GPAC ISO Audio Handler
  343.       encoder         : Lavc58.54.100 pcm_s16le
  344.     Side data:
  345.       audio service type: main
  346. [h264 @ 0xaaaaf141a710] nal_unit_type: 1(Coded slice of a non-IDR picture), nal_ref_idc: 0
  347. [h264 @ 0xaaaaf141a710] v4l2_request_queue_decode: avctx=0xaaaaf141a710 used=914 controls=5 index=9 fd=25 request_fd=26 first_slice=1 last_slice=1
  348. [h264 @ 0xaaaaf12e1380] nal_unit_type: 1(Coded slice of a non-IDR picture), nal_ref_idc: 0
  349. [h264 @ 0xaaaaf12e1380] v4l2_request_queue_decode: avctx=0xaaaaf12e1380 used=862 controls=5 index=12 fd=31 request_fd=32 first_slice=1 last_slice=1
  350. [h264 @ 0xaaaaf12e6cd0] nal_unit_type: 1(Coded slice of a non-IDR picture), nal_ref_idc: 2
  351. [h264 @ 0xaaaaf12e6cd0] v4l2_request_queue_decode: avctx=0xaaaaf12e6cd0 used=2474 controls=5 index=2 fd=11 request_fd=12 first_slice=1 last_slice=1
  352. [h264 @ 0xaaaaf13465e0] nal_unit_type: 1(Coded slice of a non-IDR picture), nal_ref_idc: 2
  353. [h264 @ 0xaaaaf13465e0] v4l2_request_queue_decode: avctx=0xaaaaf13465e0 used=916 controls=5 index=6 fd=19 request_fd=20 first_slice=1 last_slice=1
  354. [h264 @ 0xaaaaf1361b90] nal_unit_type: 1(Coded slice of a non-IDR picture), nal_ref_idc: 0
  355. [h264 @ 0xaaaaf1361b90] v4l2_request_queue_decode: avctx=0xaaaaf1361b90 used=745 controls=5 index=8 fd=23 request_fd=24 first_slice=1 last_slice=1
  356. frame=   13 fps=7.4 q=-0.0 size=N/A time=00:00:00.50 bitrate=N/A speed=0.284x    
  357. [h264 @ 0xaaaaf143c020] nal_unit_type: 1(Coded slice of a non-IDR picture), nal_ref_idc: 0
  358. [h264 @ 0xaaaaf143c020] v4l2_request_queue_decode: avctx=0xaaaaf143c020 used=785 controls=5 index=7 fd=21 request_fd=22 first_slice=1 last_slice=1
  359. [h264 @ 0xaaaaf12da860] nal_unit_type: 1(Coded slice of a non-IDR picture), nal_ref_idc: 0
  360. [h264 @ 0xaaaaf12da860] v4l2_request_queue_decode: avctx=0xaaaaf12da860 used=781 controls=5 index=10 fd=27 request_fd=28 first_slice=1 last_slice=1
  361. [h264 @ 0xaaaaf141a710] nal_unit_type: 1(Coded slice of a non-IDR picture), nal_ref_idc: 2
  362. [h264 @ 0xaaaaf141a710] v4l2_request_queue_decode: avctx=0xaaaaf141a710 used=2305 controls=5 index=9 fd=25 request_fd=26 first_slice=1 last_slice=1
  363. [h264 @ 0xaaaaf12e1380] nal_unit_type: 1(Coded slice of a non-IDR picture), nal_ref_idc: 2
  364. [h264 @ 0xaaaaf12e1380] v4l2_request_queue_decode: avctx=0xaaaaf12e1380 used=938 controls=5 index=3 fd=13 request_fd=14 first_slice=1 last_slice=1
  365. [h264 @ 0xaaaaf12e6cd0] nal_unit_type: 1(Coded slice of a non-IDR picture), nal_ref_idc: 0
  366. [h264 @ 0xaaaaf12e6cd0] v4l2_request_queue_decode: avctx=0xaaaaf12e6cd0 used=659 controls=5 index=12 fd=31 request_fd=32 first_slice=1 last_slice=1
  367. [h264 @ 0xaaaaf13465e0] nal_unit_type: 1(Coded slice of a non-IDR picture), nal_ref_idc: 0
  368. [h264 @ 0xaaaaf13465e0] v4l2_request_queue_decode: avctx=0xaaaaf13465e0 used=645 controls=5 index=4 fd=15 request_fd=16 first_slice=1 last_slice=1
  369. [h264 @ 0xaaaaf1361b90] nal_unit_type: 1(Coded slice of a non-IDR picture), nal_ref_idc: 0
  370. [h264 @ 0xaaaaf1361b90] v4l2_request_queue_decode: avctx=0xaaaaf1361b90 used=546 controls=5 index=8 fd=23 request_fd=24 first_slice=1 last_slice=1
  371. [h264 @ 0xaaaaf143c020] nal_unit_type: 1(Coded slice of a non-IDR picture), nal_ref_idc: 0
  372. [h264 @ 0xaaaaf143c020] v4l2_request_queue_decode: avctx=0xaaaaf143c020 used=628 controls=5 index=7 fd=21 request_fd=22 first_slice=1 last_slice=1
  373. frame=   21 fps=9.2 q=-0.0 size=N/A time=00:00:00.76 bitrate=N/A speed=0.337x    
  374. [h264 @ 0xaaaaf12da860] nal_unit_type: 1(Coded slice of a non-IDR picture), nal_ref_idc: 2
  375. [h264 @ 0xaaaaf12da860] v4l2_request_queue_decode: avctx=0xaaaaf12da860 used=2114 controls=5 index=5 fd=17 request_fd=18 first_slice=1 last_slice=1
  376. [h264 @ 0xaaaaf141a710] nal_unit_type: 1(Coded slice of a non-IDR picture), nal_ref_idc: 2
  377. [h264 @ 0xaaaaf141a710] v4l2_request_queue_decode: avctx=0xaaaaf141a710 used=956 controls=5 index=10 fd=27 request_fd=28 first_slice=1 last_slice=1
  378. [h264 @ 0xaaaaf12e1380] nal_unit_type: 1(Coded slice of a non-IDR picture), nal_ref_idc: 0
  379. [h264 @ 0xaaaaf12e1380] v4l2_request_queue_decode: avctx=0xaaaaf12e1380 used=763 controls=5 index=11 fd=29 request_fd=30 first_slice=1 last_slice=1
  380. frame=   24 fps=9.0 q=-0.0 Lsize=N/A time=00:00:00.96 bitrate=N/A speed=0.359x    
  381. video:13kB audio:540kB subtitle:0kB other streams:0kB global headers:0kB muxing overhead: unknown
  382. Input file #0 (bbb_sunflower_2160p_30fps_normal.mp4):
  383.   Input stream #0:0 (video): 32 packets read (127317 bytes); 25 frames decoded;
  384.   Input stream #0:1 (audio): 21 packets read (10080 bytes);
  385.   Input stream #0:2 (audio): 30 packets read (38400 bytes); 30 frames decoded (46080 samples);
  386.   Total: 83 packets (175797 bytes) demuxed
  387. Output file #0 (/dev/null):
  388.   Output stream #0:0 (video): 24 frames encoded; 24 packets muxed (12864 bytes);
  389.   Output stream #0:1 (audio): 30 frames encoded (46080 samples); 30 packets muxed (552960 bytes);
  390.   Total: 54 packets (565824 bytes) muxed
  391. [NULL @ 0xaaaaf12dd140] ff_v4l2_request_uninit: avctx=0xaaaaf12dd140 ctx=0xffff880479b0
  392. v4l2_request_frame_free: avctx=0xaaaaf143c020 data=0xffff880498a0 request_fd=14
  393. v4l2_request_buffer_free: buf=0xffff88049b38 index=3 fd=13 addr=(nil) width=3840 height=2160 size=16588800
  394. v4l2_request_buffer_free: buf=0xffff88049ab8 index=3 fd=-1 addr=0xffff8508a000 width=3840 height=2160 size=16588800
  395. v4l2_request_frame_free: avctx=0xaaaaf143c020 data=0xffff8804b4c0 request_fd=24
  396. v4l2_request_buffer_free: buf=0xffff8804b758 index=8 fd=23 addr=(nil) width=3840 height=2160 size=16588800
  397. v4l2_request_buffer_free: buf=0xffff8804b6d8 index=8 fd=-1 addr=0xffff80170000 width=3840 height=2160 size=16588800
  398. v4l2_request_frame_free: avctx=0xaaaaf143c020 data=0xffff88049300 request_fd=12
  399. v4l2_request_buffer_free: buf=0xffff88049598 index=2 fd=11 addr=(nil) width=3840 height=2160 size=16588800
  400. v4l2_request_buffer_free: buf=0xffff88049518 index=2 fd=-1 addr=0xffff8605c000 width=3840 height=2160 size=16588800
  401. v4l2_request_frame_free: avctx=0xaaaaf143c020 data=0xffff8804ba60 request_fd=26
  402. v4l2_request_buffer_free: buf=0xffff8804bcf8 index=9 fd=25 addr=(nil) width=3840 height=2160 size=16588800
  403. v4l2_request_buffer_free: buf=0xffff8804bc78 index=9 fd=-1 addr=0xffff7f19e000 width=3840 height=2160 size=16588800
  404. v4l2_request_frame_free: avctx=0xaaaaf143c020 data=0xffff88049e40 request_fd=16
  405. v4l2_request_buffer_free: buf=0xffff8804a0d8 index=4 fd=15 addr=(nil) width=3840 height=2160 size=16588800
  406. v4l2_request_buffer_free: buf=0xffff8804a058 index=4 fd=-1 addr=0xffff840b8000 width=3840 height=2160 size=16588800
  407. v4l2_request_frame_free: avctx=0xaaaaf143c020 data=0xffff8804c000 request_fd=28
  408. v4l2_request_buffer_free: buf=0xffff8804c298 index=10 fd=27 addr=(nil) width=3840 height=2160 size=16588800
  409. v4l2_request_buffer_free: buf=0xffff8804c218 index=10 fd=-1 addr=0xffff7e1cc000 width=3840 height=2160 size=16588800
  410. v4l2_request_frame_free: avctx=0xaaaaf143c020 data=0xffff8804c5a0 request_fd=30
  411. v4l2_request_buffer_free: buf=0xffff8804c838 index=11 fd=29 addr=(nil) width=3840 height=2160 size=16588800
  412. v4l2_request_buffer_free: buf=0xffff8804c7b8 index=11 fd=-1 addr=0xffff7d1fa000 width=3840 height=2160 size=16588800
  413. v4l2_request_frame_free: avctx=0xaaaaf143c020 data=0xffff8804a3e0 request_fd=18
  414. v4l2_request_buffer_free: buf=0xffff8804a678 index=5 fd=17 addr=(nil) width=3840 height=2160 size=16588800
  415. v4l2_request_buffer_free: buf=0xffff8804a5f8 index=5 fd=-1 addr=0xffff830e6000 width=3840 height=2160 size=16588800
  416. v4l2_request_frame_free: avctx=0xaaaaf143c020 data=0xffff8804af20 request_fd=22
  417. v4l2_request_buffer_free: buf=0xffff8804b1b8 index=7 fd=21 addr=(nil) width=3840 height=2160 size=16588800
  418. v4l2_request_buffer_free: buf=0xffff8804b138 index=7 fd=-1 addr=0xffff81142000 width=3840 height=2160 size=16588800
  419. v4l2_request_frame_free: avctx=0xaaaaf143c020 data=0xffff8804cb40 request_fd=32
  420. v4l2_request_buffer_free: buf=0xffff8804cdd8 index=12 fd=31 addr=(nil) width=3840 height=2160 size=16588800
  421. v4l2_request_buffer_free: buf=0xffff8804cd58 index=12 fd=-1 addr=0xffff7c228000 width=3840 height=2160 size=16588800
  422. v4l2_request_frame_free: avctx=0xaaaaf143c020 data=0xffff8804a980 request_fd=20
  423. v4l2_request_buffer_free: buf=0xffff8804ac18 index=6 fd=19 addr=(nil) width=3840 height=2160 size=16588800
  424. v4l2_request_buffer_free: buf=0xffff8804ab98 index=6 fd=-1 addr=0xffff82114000 width=3840 height=2160 size=16588800
  425. v4l2_request_frame_free: avctx=0xaaaaf143c020 data=0xffff88048bb0 request_fd=10
  426. v4l2_request_buffer_free: buf=0xffff88048e48 index=1 fd=9 addr=(nil) width=3840 height=2160 size=16588800
  427. v4l2_request_buffer_free: buf=0xffff88048dc8 index=1 fd=-1 addr=0xffff8702e000 width=3840 height=2160 size=16588800
  428. v4l2_request_frame_free: avctx=0xaaaaf143c020 data=0xffff88048670 request_fd=8
  429. v4l2_request_buffer_free: buf=0xffff88048908 index=0 fd=7 addr=(nil) width=3840 height=2160 size=16588800
  430. v4l2_request_buffer_free: buf=0xffff88048888 index=0 fd=-1 addr=0xffff8c102000 width=3840 height=2160 size=16588800
  431. v4l2_request_hwframe_ctx_free: hwfc=0xffff88048380 pool=0xffff88045510
  432. v4l2_request_pool_free: opaque=0xaaaaf143c020
  433. 55 frames successfully decoded, 0 decoding errors
  434. [AVIOContext @ 0xaaaaf12b8030] Statistics: 448127 bytes read, 2 seeks
  435. Exiting normally, received signal 2.
RAW Paste Data
We use cookies for various purposes including analytics. By continuing to use Pastebin, you agree to our use of cookies as described in the Cookies Policy. OK, I Understand
Top