SHARE
TWEET

New Tdarr

a guest Dec 8th, 2019 93 Never
Not a member of Pastebin yet? Sign Up, it unlocks many cool features!
  1. Command:
  2.  
  3. C:\Tools\Tdarr\bundle\programs\server\npm\node_modules\@ffmpeg-installer\win32-x64\ffmpeg.exe -i "E:/Test/10 Things I Hate About You (1999)/10 Things I Hate About You (1999) [Bluray-1080p].mp4" -map 0:v -map 0:a -map 0:s? -map 0:d? -c copy -c:v:0 libx265 "Path to your transcode cache. Input a base folder and the folder browser below will show subfolders to navigate.\10 Things I Hate About You (1999) [Bluray-1080p]-TdarrCacheFile-0zxNdB5e.mkv"
  4.  
  5. ffmpeg version N-92722-gf22fcd4483
  6.  
  7. Copyright (c) 2000-2018 the FFmpeg developers
  8.  
  9. built with gcc 8.2.1 (GCC) 20181201
  10.  
  11. configuration: --enable-gpl --enable-version3 --enable-sdl2 --enable-fontconfig --enable-gnutls --enable-iconv --enable-libass --enable-libbluray --enable-libfreetype --enable-libmp3lame --enable-libopencore-amrnb --enable-libopencore-amrwb --enable-libopenjpeg --enable-libopus --enable-libshine --enable-libsnappy --enable-libsoxr --enable-libtheora --enable-libtwolame --enable-libvpx --enable-libwavpack --enable-libwebp --enable-libx264 --enable-libx265 --enable-libxml2 --enable-libzimg --enable-lzma --enable-zlib --enable-gmp --enable-libvidstab --enable-libvorbis --enable-libvo-amrwbenc --enable-libmysofa --enable-libspeex --enable-libxvid --enable-libaom --enable-libmfx --enable-amf --enable-ffnvcodec --enable-cuvid --enable-d3d11va --enable-nvenc --enable-nvdec --enable-dxva2 --enable-avisynth --enable-libopenmpt
  12.  
  13. libavutil 56. 24.101 / 56. 24.101
  14.  
  15. libavcodec 58. 42.102 / 58. 42.102
  16.  
  17. libavformat 58. 24.101 / 58. 24.101
  18.  
  19. libavdevice 58. 6.101 / 58. 6.101
  20.  
  21. libavfilter 7. 46.101 / 7. 46.101
  22.  
  23. libswscale 5. 4.100 / 5. 4.100
  24.  
  25. libswresample 3. 4.100 / 3. 4.100
  26.  
  27. libpostproc 55. 4.100 / 55. 4.100
  28.  
  29. Input #0, mov,mp4,m4a,3gp,3g2,mj2, from 'E:/Test/10 Things I Hate About You (1999)/10 Things I Hate About You (1999) [Bluray-1080p].mp4':
  30.  
  31. Metadata:
  32.  
  33. major_brand : isom
  34.  
  35. minor_version : 1
  36.  
  37. compatible_brands: isomavc1
  38.  
  39. creation_time : 2013-05-26T23:25:45.000000Z
  40.  
  41. Duration:
  42.  
  43. 01:37:36.47, start: 0.000000
  44.  
  45. , bitrate: 1911 kb/s
  46.  
  47. Stream #0:0(und): Video: h264 (High) (avc1 / 0x31637661), yuv420p, 1920x1040 [SAR 1:1 DAR 24:13], 1811 kb/s, 23.98 fps, 23.98 tbr, 24k tbn, 47.95 tbc
  48.  
  49. (default)
  50.  
  51. Metadata:
  52.  
  53. creation_time : 2013-05-26T23:25:45.000000Z
  54.  
  55. handler_name : Things.I.Hate.About.You.1999.1080p.BrRip.x264.BOKUTOX.YIFY.mkv.264#trackID=1:fps=23.976@GPAC0.5.1-DEV-rev4283
  56.  
  57. Stream #0:1(eng): Audio: aac (LC) (mp4a / 0x6134706D), 48000 Hz, stereo, fltp, 95 kb/s (default)
  58.  
  59. Metadata:
  60.  
  61. creation_time :
  62.  
  63. 2013-05-26T18:03:18.000000Z
  64.  
  65. handler_name :
  66.  
  67. Sound Media Handler
  68.  
  69. Path to your transcode cache. Input a base folder and the folder browser below will show subfolders to navigate.\10 Things I Hate About You (1999) [Bluray-1080p]-TdarrCacheFile-0zxNdB5e.mkv: No such file or directory
RAW Paste Data
We use cookies for various purposes including analytics. By continuing to use Pastebin, you agree to our use of cookies as described in the Cookies Policy. OK, I Understand
Not a member of Pastebin yet?
Sign Up, it unlocks many cool features!
 
Top