Guest User

E01

a guest
Jan 24th, 2018
129
Never
Not a member of Pastebin yet? Sign Up, it unlocks many cool features!
  1. General
  2. Unique ID : 225949628411360574101978231230770517908 (0xA9FC50C6726E399EA11212632F791794)
  3. Complete name : [DB]Jormungand Perfect Order_-_01_(Dual Audio_10bit_BD1080p_x265).mkv
  4. Format : Matroska
  5. Format version : Version 4 / Version 2
  6. File size : 506 MiB
  7. Duration : 23 min 43 s
  8. Overall bit rate : 2 980 kb/s
  9. Movie name : [MK-SCY] Jormungand: Perfect Order - 01 [BD 1080p][Hi10][Dual-Audio]
  10. Encoded date : UTC 2018-01-11 12:59:49
  11. Writing application : mkvmerge v15.0.0 ('Duel with the Devil') 64-bit
  12. Writing library : libebml v1.3.5 + libmatroska v1.4.5
  13. Attachments : Abscissa Bold.ttf / Amienne.ttf / AngleciaProTitle-Regular.otf / AveriaSerif-Light.ttf / Bohemian typewriter.ttf / BOOKOSB.ttf / CAC Champagne.ttf / CronosPro-Semibold.otf / CronosPro-SemiboldIt.otf / GOTHICB.ttf / Salernomi J.ttf / Subway Novella MK Mod.ttf / Subway Novella.ttf
  14. Writing frontend : StaxRip v1.7.0.0
  15.  
  16. Video
  17. ID : 1
  18. Format : HEVC
  19. Format/Info : High Efficiency Video Coding
  20. Format profile : Main 10@L4@Main
  21. Codec ID : V_MPEGH/ISO/HEVC
  22. Duration : 23 min 42 s
  23. Bit rate : 2 601 kb/s
  24. Width : 1 920 pixels
  25. Height : 1 080 pixels
  26. Display aspect ratio : 16:9
  27. Frame rate mode : Constant
  28. Frame rate : 23.976 (24000/1001) FPS
  29. Color space : YUV
  30. Chroma subsampling : 4:2:0
  31. Bit depth : 10 bits
  32. Bits/(Pixel*Frame) : 0.052
  33. Stream size : 441 MiB (87%)
  34. Writing library : x265 2.5+14-2718cb5dd67f:[Windows][GCC 7.1.0][64 bit] 10bit
  35. Encoding settings : cpuid=1173503 / frame-threads=3 / numa-pools=8 / wpp / no-pmode / no-pme / no-psnr / no-ssim / log-level=2 / input-csp=1 / input-res=1920x1080 / interlace=0 / total-frames=34104 / level-idc=0 / high-tier=1 / uhd-bd=0 / ref=3 / no-allow-non-conformance / no-repeat-headers / annexb / no-aud / no-hrd / info / hash=0 / no-temporal-layers / open-gop / min-keyint=23 / keyint=250 / bframes=4 / b-adapt=2 / b-pyramid / bframe-bias=0 / rc-lookahead=20 / lookahead-slices=6 / scenecut=40 / no-intra-refresh / ctu=64 / min-cu-size=8 / no-rect / no-amp / max-tu-size=32 / tu-inter-depth=1 / tu-intra-depth=1 / limit-tu=0 / rdoq-level=0 / dynamic-rd=0.00 / no-ssim-rd / signhide / no-tskip / nr-intra=0 / nr-inter=0 / no-constrained-intra / strong-intra-smoothing / max-merge=2 / limit-refs=3 / no-limit-modes / me=1 / subme=2 / merange=57 / temporal-mvp / weightp / no-weightb / no-analyze-src-pics / deblock=0:0 / no-sao / no-sao-non-deblock / rd=3 / no-early-skip / no-rskip / no-fast-intra / no-tskip-fast / no-cu-lossless / no-b-intra / no-splitrd-skip / rdpenalty=0 / psy-rd=4.00 / psy-rdoq=0.00 / no-rd-refine / analysis-reuse-mode=0 / no-lossless / cbqpoffs=0 / crqpoffs=0 / rc=abr / bitrate=2600 / qcomp=0.60 / qpstep=1 / stats-write=0 / stats-read=2 / cplxblur=20.0 / qblur=0.5 / ipratio=1.10 / pbratio=1.00 / aq-mode=0 / aq-strength=0.00 / no-cutree / zone-count=0 / no-strict-cbr / qg-size=64 / rc-grain / qpmax=69 / qpmin=0 / const-vbv / sar=0 / overscan=0 / videoformat=5 / range=0 / colorprim=2 / transfer=2 / colormatrix=2 / chromaloc=0 / display-window=0 / max-cll=0,0 / min-luma=0 / max-luma=1023 / log2-max-poc-lsb=8 / vui-timing-info / vui-hrd-info / slices=1 / opt-qp-pps / opt-ref-list-length-pps / no-multi-pass-opt-rps / scenecut-bias=0.05 / no-opt-cu-delta-qp / no-aq-motion / no-hdr / no-hdr-opt / no-dhdr10-opt / analysis-reuse-level=5 / scale-factor=0 / refine-intra=0 / refine-inter=0 / refine-mv=0 / no-limit-sao / ctu-info=0
  36. Default : Yes
  37. Forced : No
  38.  
  39. Audio #1
  40. ID : 2
  41. Format : AAC
  42. Format/Info : Advanced Audio Codec
  43. Format profile : LC
  44. Codec ID : A_AAC-2
  45. Duration : 23 min 42 s
  46. Bit rate : 164 kb/s
  47. Channel(s) : 2 channels
  48. Channel positions : Front: L R
  49. Sampling rate : 48.0 kHz
  50. Frame rate : 46.875 FPS (1024 SPF)
  51. Compression mode : Lossy
  52. Delay relative to video : 9 ms
  53. Stream size : 27.8 MiB (6%)
  54. Language : English
  55. Default : No
  56. Forced : No
  57.  
  58. Audio #2
  59. ID : 3
  60. Format : AAC
  61. Format/Info : Advanced Audio Codec
  62. Format profile : LC
  63. Codec ID : A_AAC-2
  64. Duration : 23 min 43 s
  65. Bit rate : 166 kb/s
  66. Channel(s) : 2 channels
  67. Channel positions : Front: L R
  68. Sampling rate : 48.0 kHz
  69. Frame rate : 46.875 FPS (1024 SPF)
  70. Compression mode : Lossy
  71. Delay relative to video : 9 ms
  72. Stream size : 28.1 MiB (6%)
  73. Language : Japanese
  74. Default : No
  75. Forced : No
  76.  
  77. Text #1
  78. ID : 4
  79. Format : ASS
  80. Codec ID : S_TEXT/ASS
  81. Codec ID/Info : Advanced Sub Station Alpha
  82. Duration : 22 min 25 s
  83. Bit rate : 13.9 kb/s
  84. Count of elements : 11641
  85. Compression mode : Lossless
  86. Stream size : 2.23 MiB (0%)
  87. Language : English
  88. Default : No
  89. Forced : Yes
  90.  
  91. Text #2
  92. ID : 5
  93. Format : ASS
  94. Codec ID : S_TEXT/ASS
  95. Codec ID/Info : Advanced Sub Station Alpha
  96. Duration : 23 min 22 s
  97. Bit rate : 14.8 kb/s
  98. Count of elements : 11955
  99. Compression mode : Lossless
  100. Stream size : 2.47 MiB (0%)
  101. Language : English
  102. Default : No
  103. Forced : No
  104.  
  105. Menu
  106. 00:00:00.000 : en:Prologue
  107. 00:00:57.057 : en:Opening
  108. 00:02:27.021 : en:Part A
  109. 00:10:59.992 : en:Part B
  110. 00:22:00.986 : en:Ending
  111. 00:23:30.992 : en:Preview
RAW Paste Data