HYBRID_BEING

[H4L] Ace Attorney - 03 [720p][491C5A71].mkv

Jun 20th, 2016
79
Never
Not a member of Pastebin yet? Sign Up, it unlocks many cool features!
  1. General
  2. Unique ID : 179587938547208396288118875431064631250 (0x871B60FC4E57550C8EA0E466D920F7D2)
  3. Complete name : [H4L] Ace Attorney - 03 [720p][491C5A71].mkv
  4. Format : Matroska
  5. Format version : Version 4 / Version 2
  6. File size : 326 MiB
  7. Duration : 23mn 47s
  8. Overall bit rate : 1 918 Kbps
  9. Movie name : [Firime] Gyakuten Saiban: Sono "Shinjitsu", Igi Ari! - "Turnabout Sisters - 2nd Trial" (Episode 03)
  10. Encoded date : UTC 2016-04-19 14:46:54
  11. Writing application : mkvmerge v9.0.1 ('Obstacles') 64bit
  12. Writing library : libebml v1.3.3 + libmatroska v1.4.4
  13. Attachments : CHILLER.TTF / chinrg_.ttf / MATURASC.TTF / vesta-bold.otf / CC Wild Words Int Roman.ttf / CevicheOne-Regular.otf
  14.  
  15. Video
  16. ID : 1
  17. Format : AVC
  18. Format/Info : Advanced Video Codec
  19. Format profile : High@L4
  20. Format settings, CABAC : Yes
  21. Format settings, ReFrames : 6 frames
  22. Codec ID : V_MPEG4/ISO/AVC
  23. Duration : 23mn 46s
  24. Bit rate : 1 776 Kbps
  25. Width : 1 280 pixels
  26. Height : 720 pixels
  27. Display aspect ratio : 16:9
  28. Frame rate mode : Variable
  29. Frame rate : 23.976 (23976/1000) fps
  30. Color space : YUV
  31. Chroma subsampling : 4:2:0
  32. Bit depth : 8 bits
  33. Scan type : Progressive
  34. Bits/(Pixel*Frame) : 0.080
  35. Stream size : 302 MiB (93%)
  36. Title : Default
  37. Writing library : x264 core 120 r2120 0c7dab9
  38. Encoding settings : cabac=1 / ref=6 / deblock=1:1:1 / analyse=0x3:0x113 / me=umh / subme=8 / psy=1 / psy_rd=0.40:0.00 / mixed_ref=1 / me_range=16 / chroma_me=1 / trellis=1 / 8x8dct=1 / cqm=0 / deadzone=21,11 / fast_pskip=1 / chroma_qp_offset=-2 / threads=4 / sliced_threads=0 / nr=0 / decimate=1 / interlaced=0 / bluray_compat=0 / constrained_intra=0 / bframes=3 / b_pyramid=2 / b_adapt=2 / b_bias=0 / direct=3 / weightb=1 / open_gop=0 / weightp=2 / keyint=250 / keyint_min=23 / scenecut=40 / intra_refresh=0 / rc_lookahead=50 / rc=2pass / mbtree=1 / bitrate=1776 / ratetol=1.0 / qcomp=0.60 / qpmin=0 / qpmax=69 / qpstep=4 / cplxblur=20.0 / qblur=0.5 / vbv_maxrate=3552 / vbv_bufsize=8880 / nal_hrd=none / ip_ratio=1.40 / aq=1:0.60
  39. Default : Yes
  40. Forced : No
  41.  
  42. Audio
  43. ID : 2
  44. Format : AAC
  45. Format/Info : Advanced Audio Codec
  46. Format profile : LC
  47. Codec ID : A_AAC
  48. Duration : 23mn 47s
  49. Bit rate : 128 Kbps
  50. Channel(s) : 2 channels
  51. Channel positions : Front: L R
  52. Sampling rate : 44.1 KHz
  53. Frame rate : 43.066 fps (1024 spf)
  54. Compression mode : Lossy
  55. Stream size : 21.8 MiB (7%)
  56. Title : Default
  57. Language : Japanese
  58. Default : Yes
  59. Forced : No
  60.  
  61. Text #1
  62. ID : 3
  63. Format : ASS
  64. Codec ID : S_TEXT/ASS
  65. Codec ID/Info : Advanced Sub Station Alpha
  66. Duration : 23mn 45s
  67. Bit rate : 1 774 bps
  68. Count of elements : 3515
  69. Compression mode : Lossless
  70. Stream size : 309 KiB (0%)
  71. Title : Tagalog
  72. Language : Tagalog
  73. Default : Yes
  74. Forced : No
  75.  
  76. Text #2
  77. ID : 4
  78. Format : ASS
  79. Codec ID : S_TEXT/ASS
  80. Codec ID/Info : Advanced Sub Station Alpha
  81. Duration : 23mn 45s
  82. Bit rate : 1 780 bps
  83. Count of elements : 3515
  84. Compression mode : Lossless
  85. Stream size : 310 KiB (0%)
  86. Title : English
  87. Language : English
  88. Default : No
  89. Forced : No
  90.  
  91. Text #3
  92. ID : 5
  93. Format : ASS
  94. Codec ID : S_TEXT/ASS
  95. Codec ID/Info : Advanced Sub Station Alpha
  96. Duration : 23mn 45s
  97. Bit rate : 1 776 bps
  98. Count of elements : 3515
  99. Compression mode : Lossless
  100. Stream size : 309 KiB (0%)
  101. Title : Tagalog w/ Japanese Names
  102. Language : Tagalog
  103. Default : No
  104. Forced : No
  105.  
  106. Text #4
  107. ID : 6
  108. Format : ASS
  109. Codec ID : S_TEXT/ASS
  110. Codec ID/Info : Advanced Sub Station Alpha
  111. Duration : 23mn 45s
  112. Bit rate : 1 782 bps
  113. Count of elements : 3515
  114. Compression mode : Lossless
  115. Stream size : 310 KiB (0%)
  116. Title : English w/ Japanese Names
  117. Language : English
  118. Default : No
  119. Forced : No
  120.  
  121. Menu
  122. 00:00:00.000 : en:Prologue
  123. 00:00:14.990 : en:Opening Theme
  124. 00:01:44.950 : en:Scene 1
  125. 00:12:43.950 : en:Scene 2
  126. 00:21:46.240 : en:Ending Theme
  127. 00:23:17.000 : en:Preview
RAW Paste Data