Guest User

Untitled

a guest
Oct 20th, 2019
35
Never
Not a member of Pastebin yet? Sign Up, it unlocks many cool features!
  1. General
  2. Complete name : The.Kings.Of.Rock.N.Roll.S01E01.Chuck.Berry.1080p.HDTV.H264-LiNKLE
  3. Format : Matroska
  4. Format version : Version 4
  5. File size : 2.96 GiB
  6. Duration : 1 h 33 min
  7. Overall bit rate : 4 542 kb/s
  8. Writing application : no_variable_data
  9. Writing library : no_variable_data
  10.  
  11. Video
  12. ID : 1
  13. Format : AVC
  14. Format/Info : Advanced Video Codec
  15. Format profile : High@L4
  16. Format settings : CABAC / 4 Ref Frames
  17. Format settings, CABAC : Yes
  18. Format settings, Reference frames : 4 frames
  19. Format settings, GOP : M=3, N=15
  20. Codec ID : V_MPEG4/ISO/AVC
  21. Duration : 1 h 33 min
  22. Bit rate : 4 067 kb/s
  23. Width : 1 920 pixels
  24. Height : 1 080 pixels
  25. Display aspect ratio : 16:9
  26. Frame rate mode : Constant
  27. Frame rate : 25.000 FPS
  28. Standard : Component
  29. Color space : YUV
  30. Chroma subsampling : 4:2:0
  31. Bit depth : 8 bits
  32. Scan type : Interlaced
  33. Scan type, store method : Separated fields
  34. Scan order : Top Field First
  35. Bits/(Pixel*Frame) : 0.078
  36. Stream size : 2.65 GiB (90%)
  37. Language : English
  38. Default : Yes
  39. Forced : No
  40. Color range : Limited
  41. Color primaries : BT.709
  42. Transfer characteristics : BT.709
  43. Matrix coefficients : BT.709
  44.  
  45. Audio
  46. ID : 2
  47. Format : AC-3
  48. Format/Info : Audio Coding 3
  49. Commercial name : Dolby Digital
  50. Codec ID : A_AC3
  51. Duration : 1 h 33 min
  52. Bit rate mode : Constant
  53. Bit rate : 384 kb/s
  54. Channel(s) : 2 channels
  55. Channel layout : L R
  56. Sampling rate : 48.0 kHz
  57. Frame rate : 31.250 FPS (1536 SPF)
  58. Bit depth : 16 bits
  59. Compression mode : Lossy
  60. Stream size : 256 MiB (8%)
  61. Language : English
  62. Service kind : Complete Main
  63. Default : Yes
  64. Forced : No
  65.  
  66. Text
  67. ID : 3
  68. Format : UTF-8
  69. Codec ID : S_TEXT/UTF8
  70. Codec ID/Info : UTF-8 Plain Text
  71. Language : English
  72. Default : No
  73. Forced : No
  74.  
  75. Menu
  76. 00:00:00.000 : en:PART_01
  77. 00:20:52.070 : en:PART_02
  78. 00:44:44.010 : en:PART_03
  79. 01:09:00.050 : en:PART_04
RAW Paste Data