Henry_Kr

Mr.Pickles

Sep 8th, 2019
38
Never
Not a member of Pastebin yet? Sign Up, it unlocks many cool features!
  1. Video
  2. ID : 1
  3. Format : AVC
  4. Format/Info : Advanced Video Codec
  5. Format profile : High@L4
  6. Format settings : CABAC / 4 Ref Frames
  7. Format settings, CABAC : Yes
  8. Format settings, Reference : 4 frames
  9. Muxing mode : Header stripping
  10. Codec ID : V_MPEG4/ISO/AVC
  11. Duration : 11 min 18 s
  12. Bit rate : 5 050 kb/s
  13. Width : 1 920 pixels
  14. Height : 1 080 pixels
  15. Display aspect ratio : 16:9
  16. Frame rate mode : Constant
  17. Frame rate : 23.976 (24000/1001) FPS
  18. Color space : YUV
  19. Chroma subsampling : 4:2:0
  20. Bit depth : 8 bits
  21. Scan type : Progressive
  22. Bits/(Pixel*Frame) : 0.102
  23. Stream size : 408 MiB (88%)
  24. Title : Mr.Pickles.S03E01.Download.do.Cérebro.1080p.WEB-DL.[CartoonNOW]
  25. Language : English
  26. Default : Yes
  27. Forced : No
  28.  
  29. Audio #1
  30. ID : 2
  31. Format : AC-3
  32. Format/Info : Audio Coding 3
  33. Commercial name : Dolby Digital
  34. Muxing mode : Header stripping
  35. Codec ID : A_AC3
  36. Duration : 11 min 18 s
  37. Bit rate mode : Constant
  38. Bit rate : 192 kb/s
  39. Channel(s) : 2 channels
  40. Channel layout : L R
  41. Sampling rate : 48.0 kHz
  42. Frame rate : 31.250 FPS (1536 SPF)
  43. Bit depth : 16 bits
  44. Compression mode : Lossy
  45. Delay relative to video : -42 ms
  46. Stream size : 15.5 MiB (3%)
  47. Title : AC3 - 2.0
  48. Language : Portuguese
  49. Service kind : Complete Main
  50. Default : Yes
  51. Forced : No
  52.  
  53. Audio #2
  54. ID : 3
  55. Format : AC-3
  56. Format/Info : Audio Coding 3
  57. Commercial name : Dolby Digital
  58. Muxing mode : Header stripping
  59. Codec ID : A_AC3
  60. Duration : 11 min 18 s
  61. Bit rate mode : Constant
  62. Bit rate : 384 kb/s
  63. Channel(s) : 6 channels
  64. Channel layout : L R C LFE Ls Rs
  65. Sampling rate : 48.0 kHz
  66. Frame rate : 31.250 FPS (1536 SPF)
  67. Bit depth : 16 bits
  68. Compression mode : Lossy
  69. Delay relative to video : -42 ms
  70. Stream size : 31.1 MiB (7%)
  71. Title : AC3 - 5.1
  72. Language : English
  73. Service kind : Complete Main
  74. Default : No
  75. Forced : No
  76.  
  77. Text
  78. ID : 4
  79. Format : UTF-8
  80. Codec ID : S_TEXT/UTF8
  81. Codec ID/Info : UTF-8 Plain Text
  82. Title : Completa
  83. Language : Portuguese
  84. Default : No
  85. Forced : No
RAW Paste Data