Guest User

[Some-Stuffs]_Drifters_02_[D30678B4].mkv

a guest
Oct 18th, 2016
304
Never
Not a member of Pastebin yet? Sign Up, it unlocks many cool features!
  1. General
  2. Format : Matroska
  3. Format version : Version 4 / Version 2
  4. File size : 474 MiB
  5. Duration : 23mn 40s
  6. Overall bit rate mode : Variable
  7. Overall bit rate : 2 798 Kbps
  8. Encoded date : UTC 2016-10-17 01:28:39
  9. Writing application : mkvmerge v9.5.0 ('Quiet Fire') 64bit
  10. Writing library : libebml v1.3.4 + libmatroska v1.4.5
  11. Attachements : DK Sensory Overload_0.ttf / edosz.ttf / GILB____.TTF / MAIAN.TTF / arial.ttf / BASTARD.TTF / calibrib.ttf / Charlotte Sans Book LET.ttf / CM Sans Serif 2012.ttf
  12. DURATION : 00:23:37.440000000
  13. NUMBER_OF_FRAMES : 743
  14. NUMBER_OF_BYTES : 67213
  15. _STATISTICS_WRITING_APP : mkvmerge v9.5.0 ('Quiet Fire') 64bit
  16. _STATISTICS_WRITING_DATE_UTC : 2016-10-17 01:28:39
  17. _STATISTICS_TAGS : BPS DURATION NUMBER_OF_FRAMES NUMBER_OF_BYTES
  18.  
  19. Video
  20. ID : 1
  21. Format : AVC
  22. Format/Info : Advanced Video Codec
  23. Format profile : High 10@L4
  24. Format settings, CABAC : Yes
  25. Format settings, ReFrames : 8 frames
  26. Codec ID : V_MPEG4/ISO/AVC
  27. Duration : 23mn 40s
  28. Bit rate : 2 514 Kbps
  29. Width : 1 280 pixels
  30. Height : 720 pixels
  31. Display aspect ratio : 16:9
  32. Frame rate mode : Constant
  33. Frame rate : 23.976 fps
  34. Color space : YUV
  35. Chroma subsampling : 4:2:0
  36. Bit depth : 10 bits
  37. Scan type : Progressive
  38. Bits/(Pixel*Frame) : 0.114
  39. Stream size : 426 MiB (90%)
  40. Writing library : x264 core 148 r2638 7599210
  41. Encoding settings : cabac=1 / ref=8 / deblock=1:1:1 / analyse=0x3:0x133 / me=umh / subme=10 / psy=1 / psy_rd=1.00:0.00 / mixed_ref=1 / me_range=24 / chroma_me=1 / trellis=2 / 8x8dct=1 / cqm=0 / deadzone=21,11 / fast_pskip=0 / chroma_qp_offset=-2 / threads=6 / lookahead_threads=1 / sliced_threads=0 / nr=0 / decimate=1 / interlaced=0 / bluray_compat=0 / constrained_intra=0 / bframes=7 / b_pyramid=2 / b_adapt=2 / b_bias=0 / direct=3 / weightb=1 / open_gop=0 / weightp=2 / keyint=240 / keyint_min=23 / scenecut=40 / intra_refresh=0 / rc_lookahead=100 / rc=crf / mbtree=1 / crf=18.0 / qcomp=0.60 / qpmin=0 / qpmax=81 / qpstep=4 / ip_ratio=1.40 / aq=1:1.00
  42. Default : Yes
  43. Forced : No
  44.  
  45. Audio
  46. ID : 2
  47. Format : MPEG Audio
  48. Format version : Version 1
  49. Format profile : Layer 3
  50. Mode : Joint stereo
  51. Codec ID : A_MPEG/L3
  52. Codec ID/Hint : MP3
  53. Duration : 23mn 40s
  54. Bit rate mode : Variable
  55. Bit rate : 229 Kbps
  56. Minimum bit rate : 32.0 Kbps
  57. Channel(s) : 2 channels
  58. Sampling rate : 44.1 KHz
  59. Compression mode : Lossy
  60. Stream size : 38.7 MiB (8%)
  61. Writing library : LAME3.99r
  62. Encoding settings : -m j -V 0 -q 0 -lowpass 22.1 --vbr-new -b 32
  63. Default : Yes
  64. Forced : No
  65.  
  66. Text
  67. ID : 3
  68. Format : ASS
  69. Codec ID : S_TEXT/ASS
  70. Codec ID/Info : Advanced Sub Station Alpha
  71. Compression mode : Lossless
  72. Default : Yes
  73. Forced : No
  74.  
  75. Menu
  76. 00:00:00.000 : en:Episode 2 Part A
  77. 00:01:26.044 : en:Opening
  78. 00:02:56.093 : en:Episode 2 Part B
  79. 00:12:22.116 : en:Episode 2 Part C
  80. 00:21:55.105 : en:Ending
  81. 00:23:25.112 : en:Episode 3 Preview
RAW Paste Data