Guest User

Untitled

a guest
Jun 4th, 2020
27
Never
Not a member of Pastebin yet? Sign Up, it unlocks many cool features!
  1. Общее
  2. Уникальный идентификатор : 40903393783878427643491155647952860304 (0x1EC5B503F38E432426F5F66770B43490)
  3. Полное имя : El Bar.2017.BDRip.1080p.W.mkv
  4. Формат : Matroska
  5. Версия формата : Version 4
  6. Размер файла : 6,65 Гбайт
  7. Продолжительность : 1 ч. 42 м.
  8. Общий поток : 9 334 Кбит/сек
  9. Название фильма : El Bar.2017.BDRip.1080p.W
  10. Дата кодирования : UTC 2020-06-04 16:10:29
  11. Программа кодирования : mkvmerge v23.0.0 ('The Bride Said No') 64-bit
  12. Библиотека кодирования : libebml v1.3.6 + libmatroska v1.4.9
  13.  
  14. Видео
  15. Идентификатор : 1
  16. Формат : AVC
  17. Формат/Информация : Advanced Video Codec
  18. Профиль формата : High@L4.1
  19. Настройки формата : CABAC / 5 Ref Frames
  20. Параметр CABAC формата : Да
  21. Параметр RefFrames формата : 5 кадров
  22. Идентификатор кодека : V_MPEG4/ISO/AVC
  23. Продолжительность : 1 ч. 42 м.
  24. Битрейт : 7 440 Кбит/сек
  25. Ширина : 1 920 пикселей
  26. Высота : 800 пикселей
  27. Соотношение сторон : 2,40:1
  28. Режим частоты кадров : Постоянный
  29. Частота кадров : 24,000 кадра/сек
  30. Цветовое пространство : YUV
  31. Субдискретизация насыщенности : 4:2:0
  32. Битовая глубина : 8 бит
  33. Тип развёртки : Прогрессивная
  34. Бит/(Пиксели*Кадры) : 0.202
  35. Размер потока : 5,30 Гбайт (80%)
  36. Заголовок : rip by -=walledol=-
  37. Библиотека кодирования : x264 core 155 r2901 7d0ff22
  38. Настройки программы : cabac=1 / ref=5 / deblock=1:-3:-3 / analyse=0x3:0x133 / me=umh / subme=11 / psy=1 / psy_rd=1.00:0.01 / mixed_ref=1 / me_range=32 / chroma_me=1 / trellis=2 / 8x8dct=1 / cqm=0 / deadzone=21,11 / fast_pskip=0 / chroma_qp_offset=-3 / threads=6 / lookahead_threads=1 / sliced_threads=0 / nr=0 / decimate=1 / interlaced=0 / bluray_compat=0 / constrained_intra=0 / bframes=8 / b_pyramid=2 / b_adapt=2 / b_bias=0 / direct=3 / weightb=1 / open_gop=0 / weightp=2 / keyint=240 / keyint_min=24 / scenecut=40 / intra_refresh=0 / rc_lookahead=60 / rc=2pass / mbtree=0 / bitrate=7440 / ratetol=1.0 / qcomp=0.60 / qpmin=0 / qpmax=69 / qpstep=4 / cplxblur=20.0 / qblur=0.5 / vbv_maxrate=30000 / vbv_bufsize=33000 / nal_hrd=none / filler=0 / ip_ratio=1.40 / pb_ratio=1.30 / aq=3:0.80
  39. Язык : English
  40. Default : Да
  41. Forced : Нет
  42.  
  43. Аудио #1
  44. Идентификатор : 2
  45. Формат : AC-3
  46. Формат/Информация : Audio Coding 3
  47. Коммерческое название : Dolby Digital
  48. Идентификатор кодека : A_AC3
  49. Продолжительность : 1 ч. 42 м.
  50. Вид битрейта : Постоянный
  51. Битрейт : 384 Кбит/сек
  52. Каналы : 6 каналов
  53. Channel layout : L R C LFE Ls Rs
  54. Частота : 48,0 КГц
  55. Частота кадров : 31,250 кадров/сек (1536 SPF)
  56. Метод сжатия : С потерями
  57. Размер потока : 280 Мбайт (4%)
  58. Заголовок : MVO | iTunes
  59. Язык : Russian
  60. Service kind : Complete Main
  61. Default : Да
  62. Forced : Нет
  63.  
  64. Аудио #2
  65. Идентификатор : 3
  66. Формат : DTS
  67. Формат/Информация : Digital Theater Systems
  68. Идентификатор кодека : A_DTS
  69. Продолжительность : 1 ч. 42 м.
  70. Вид битрейта : Постоянный
  71. Битрейт : 1 509 Кбит/сек
  72. Каналы : 6 каналов
  73. Channel layout : C L R Ls Rs LFE
  74. Частота : 48,0 КГц
  75. Частота кадров : 93,750 кадра/сек (512 SPF)
  76. Битовая глубина : 24 бит
  77. Метод сжатия : С потерями
  78. Размер потока : 1,08 Гбайт (16%)
  79. Язык : Spanish
  80. Default : Нет
  81. Forced : Нет
  82.  
  83. Текст #1
  84. Идентификатор : 4
  85. Формат : UTF-8
  86. Идентификатор кодека : S_TEXT/UTF8
  87. Идентификатор кодека/Информация : UTF-8 Plain Text
  88. Продолжительность : 1 ч. 37 м.
  89. Битрейт : 105 бит/сек
  90. Count of elements : 1412
  91. Размер потока : 75,0 Кбайт (0%)
  92. Язык : Russian
  93. Default : Нет
  94. Forced : Нет
  95.  
  96. Текст #2
  97. Идентификатор : 5
  98. Формат : UTF-8
  99. Идентификатор кодека : S_TEXT/UTF8
  100. Идентификатор кодека/Информация : UTF-8 Plain Text
  101. Продолжительность : 1 ч. 37 м.
  102. Битрейт : 61 бит/сек
  103. Count of elements : 1415
  104. Размер потока : 43,7 Кбайт (0%)
  105. Язык : English
  106. Default : Нет
  107. Forced : Нет
  108.  
  109. Меню
  110. 00:00:00.000 : en:Chapter 1
  111. 00:07:25.625 : en:Chapter 2
  112. 00:17:14.917 : en:Chapter 3
  113. 00:26:04.917 : en:Chapter 4
  114. 00:33:26.292 : en:Chapter 5
  115. 00:41:39.500 : en:Chapter 6
  116. 00:51:34.375 : en:Chapter 7
  117. 00:59:14.667 : en:Chapter 8
  118. 01:08:20.625 : en:Chapter 9
  119. 01:16:23.667 : en:Chapter 10
  120. 01:24:45.083 : en:Chapter 11
  121. 01:33:44.625 : en:Chapter 12
RAW Paste Data