Guest User

Untitled

a guest
Jul 7th, 2020
24
Never
Not a member of Pastebin yet? Sign Up, it unlocks many cool features!
  1. General
  2. Unique ID : 240823157166094800793760189648216306028 (0xB52CDA5C29E45A87B73AD4DD1EA0B16C)
  3. Complete name : E:\Video111\True.History.of.the.Kelly.Gang.2019.BDRip.1080p.seleZen.mkv
  4. Format : Matroska
  5. Format version : Version 4
  6. File size : 14.3 GiB
  7. Duration : 2 h 5 min
  8. Overall bit rate : 16.4 Mb/s
  9. Movie name : True History of the Kelly Gang 2019 from селезень
  10. Encoded date : UTC 2020-07-07 14:51:31
  11. Writing application : mkvmerge v40.0.0 ('Old Town Road + Pony') 64-bit
  12. Writing library : libebml v1.3.9 + libmatroska v1.5.2
  13.  
  14. Video
  15. ID : 1
  16. Format : AVC
  17. Format/Info : Advanced Video Codec
  18. Format profile : High@L4.1
  19. Format settings : CABAC / 4 Ref Frames
  20. Format settings, CABAC : Yes
  21. Format settings, Reference frames : 4 frames
  22. Codec ID : V_MPEG4/ISO/AVC
  23. Duration : 2 h 5 min
  24. Bit rate : 15.1 Mb/s
  25. Width : 1 920 pixels
  26. Height : 1 034 pixels
  27. Display aspect ratio : 1.85:1
  28. Frame rate mode : Constant
  29. Frame rate : 24.000 FPS
  30. Color space : YUV
  31. Chroma subsampling : 4:2:0
  32. Bit depth : 8 bits
  33. Scan type : Progressive
  34. Bits/(Pixel*Frame) : 0.318
  35. Stream size : 13.2 GiB (93%)
  36. Title : Encoded by seleZen
  37. Writing library : x264 core 142 r2431+42 c69a006 tMod [8-bit@all X86_64]
  38. Encoding settings : cabac=1 / ref=4 / deblock=1:-2:-2 / analyse=0x3:0x133 / me=umh / subme=10 / psy=1 / fade_compensate=0.00 / psy_rd=1.00:0.00 / mixed_ref=1 / me_range=32 / chroma_me=1 / trellis=2 / 8x8dct=1 / cqm=0 / deadzone=21,11 / fast_pskip=0 / chroma_qp_offset=-2 / threads=24 / lookahead_threads=4 / sliced_threads=0 / nr=0 / decimate=0 / interlaced=0 / bluray_compat=0 / constrained_intra=0 / fgo=0 / bframes=9 / b_pyramid=2 / b_adapt=2 / b_bias=0 / direct=3 / weightb=1 / open_gop=0 / weightp=2 / keyint=240 / keyint_min=24 / scenecut=40 / intra_refresh=0 / rc_lookahead=50 / rc=2pass / mbtree=0 / bitrate=15132 / ratetol=1.0 / qcomp=0.60 / qpmin=0:0:0 / qpmax=51:51:51 / qpstep=4 / cplxblur=20.0 / qblur=0.5 / vbv_maxrate=50000 / vbv_bufsize=62500 / nal_hrd=none / filler=0 / ip_ratio=1.40 / pb_ratio=1.30 / aq=3:0.80 / aq-sensitivity=10.00 / aq-factor=1.00:1.00:1.00 / aq2=0 / aq3=0
  39. Language : English
  40. Default : Yes
  41. Forced : No
  42.  
  43. Audio #1
  44. ID : 2
  45. Format : AC-3
  46. Format/Info : Audio Coding 3
  47. Commercial name : Dolby Digital
  48. Codec ID : A_AC3
  49. Duration : 2 h 5 min
  50. Bit rate mode : Constant
  51. Bit rate : 384 kb/s
  52. Channel(s) : 6 channels
  53. Channel layout : L R C LFE Ls Rs
  54. Sampling rate : 48.0 kHz
  55. Frame rate : 31.250 FPS (1536 SPF)
  56. Compression mode : Lossy
  57. Stream size : 343 MiB (2%)
  58. Title : Dub
  59. Language : Russian
  60. Service kind : Complete Main
  61. Default : Yes
  62. Forced : Yes
  63.  
  64. Audio #2
  65. ID : 3
  66. Format : AC-3
  67. Format/Info : Audio Coding 3
  68. Commercial name : Dolby Digital
  69. Codec ID : A_AC3
  70. Duration : 2 h 5 min
  71. Bit rate mode : Constant
  72. Bit rate : 192 kb/s
  73. Channel(s) : 2 channels
  74. Channel layout : L R
  75. Sampling rate : 48.0 kHz
  76. Frame rate : 31.250 FPS (1536 SPF)
  77. Compression mode : Lossy
  78. Stream size : 172 MiB (1%)
  79. Title : Dub
  80. Language : Ukrainian
  81. Service kind : Complete Main
  82. Default : No
  83. Forced : No
  84.  
  85. Audio #3
  86. ID : 4
  87. Format : AC-3
  88. Format/Info : Audio Coding 3
  89. Commercial name : Dolby Digital
  90. Codec ID : A_AC3
  91. Duration : 2 h 5 min
  92. Bit rate mode : Constant
  93. Bit rate : 640 kb/s
  94. Channel(s) : 6 channels
  95. Channel layout : L R C LFE Ls Rs
  96. Sampling rate : 48.0 kHz
  97. Frame rate : 31.250 FPS (1536 SPF)
  98. Compression mode : Lossy
  99. Stream size : 572 MiB (4%)
  100. Title : Original
  101. Language : English
  102. Service kind : Complete Main
  103. Default : No
  104. Forced : No
  105.  
  106. Text #1
  107. ID : 5
  108. Format : UTF-8
  109. Codec ID : S_TEXT/UTF8
  110. Codec ID/Info : UTF-8 Plain Text
  111. Duration : 1 h 58 min
  112. Bit rate : 87 b/s
  113. Count of elements : 1400
  114. Stream size : 76.5 KiB (0%)
  115. Title : Full
  116. Language : Russian
  117. Default : No
  118. Forced : No
  119.  
  120. Text #2
  121. ID : 6
  122. Format : UTF-8
  123. Codec ID : S_TEXT/UTF8
  124. Codec ID/Info : UTF-8 Plain Text
  125. Duration : 1 h 59 min
  126. Bit rate : 54 b/s
  127. Count of elements : 1579
  128. Stream size : 47.8 KiB (0%)
  129. Title : Full
  130. Language : English
  131. Default : No
  132. Forced : No
  133.  
  134. Text #3
  135. ID : 7
  136. Format : UTF-8
  137. Codec ID : S_TEXT/UTF8
  138. Codec ID/Info : UTF-8 Plain Text
  139. Duration : 2 h 0 min
  140. Bit rate : 59 b/s
  141. Count of elements : 1736
  142. Stream size : 52.2 KiB (0%)
  143. Title : SDH
  144. Language : English
  145. Default : No
  146. Forced : No
  147.  
  148. Menu
  149. 00:00:00.000 : en:Chapter 01
  150. 00:13:26.000 : en:Chapter 02
  151. 00:30:25.000 : en:Chapter 03
  152. 00:47:51.000 : en:Chapter 04
  153. 01:01:52.167 : en:Chapter 05
  154. 01:17:01.750 : en:Chapter 06
  155. 01:33:16.708 : en:Chapter 07
  156. 01:51:24.000 : en:Chapter 08
RAW Paste Data