Henry_Kr

BoZ-S01

Oct 28th, 2020
271
Never
Not a member of Pastebin yet? Sign Up, it unlocks many cool features!
  1. Video
  2. ID : 1
  3. Format : AVC
  4. Format/Info : Advanced Video Codec
  5. Format profile : Main@L4
  6. Format settings : CABAC / 3 Ref Frames
  7. Format settings, CABAC : Yes
  8. Format settings, Reference : 3 frames
  9. Muxing mode : Header stripping
  10. Codec ID : V_MPEG4/ISO/AVC
  11. Duration : 27 min 38 s
  12. Bit rate mode : Variable
  13. Bit rate : 3 583 kb/s
  14. Nominal bit rate : 3 830 kb/s
  15. Maximum bit rate : 5 745 kb/s
  16. Width : 1 920 pixels
  17. Height : 1 080 pixels
  18. Display aspect ratio : 16:9
  19. Frame rate mode : Constant
  20. Frame rate : 24.000 FPS
  21. Color space : YUV
  22. Chroma subsampling : 4:2:0
  23. Bit depth : 8 bits
  24. Scan type : Progressive
  25. Bits/(Pixel*Frame) : 0.072
  26. Stream size : 708 MiB (72%)
  27. Title : Blood.of.Zeus.S01E01.Chamando.Para.a.Guerra.1080p.NF.WEB.[CartoonNOW]
  28. Writing library : x264 core 148 r2722 1b0121b
  29. ip_ratio=1.40 / aq=1:1.00
  30. Language : English
  31. Default : Yes
  32. Forced : No
  33.  
  34. Audio #1
  35. ID : 2
  36. Format : E-AC-3
  37. Format/Info : Enhanced AC-3
  38. Commercial name : Dolby Digital Plus
  39. Muxing mode : Header stripping
  40. Codec ID : A_EAC3
  41. Duration : 27 min 38 s
  42. Bit rate mode : Constant
  43. Bit rate : 640 kb/s
  44. Channel(s) : 6 channels
  45. Channel layout : L R C LFE Ls Rs
  46. Sampling rate : 48.0 kHz
  47. Frame rate : 31.250 FPS (1536 SPF)
  48. Compression mode : Lossy
  49. Stream size : 127 MiB (13%)
  50. Title : E-AC3 5.1
  51. Language : Portuguese
  52. Service kind : Complete Main
  53. Default : Yes
  54. Forced : No
  55.  
  56. Audio #2
  57. ID : 3
  58. Format : E-AC-3
  59. Format/Info : Enhanced AC-3
  60. Commercial name : Dolby Digital Plus
  61. Muxing mode : Header stripping
  62. Codec ID : A_EAC3
  63. Duration : 27 min 38 s
  64. Bit rate mode : Constant
  65. Bit rate : 640 kb/s
  66. Channel(s) : 6 channels
  67. Channel layout : L R C LFE Ls Rs
  68. Sampling rate : 48.0 kHz
  69. Frame rate : 31.250 FPS (1536 SPF)
  70. Compression mode : Lossy
  71. Stream size : 127 MiB (13%)
  72. Title : E-AC3 5.1
  73. Language : English
  74. Service kind : Complete Main
  75. Default : No
  76. Forced : No
  77.  
  78. Text #1
  79. ID : 4
  80. Format : UTF-8
  81. Codec ID : S_TEXT/UTF8
  82. Codec ID/Info : UTF-8 Plain Text
  83. Title : Forçada
  84. Language : Portuguese
  85. Default : No
  86. Forced : Yes
  87.  
  88. Text #2
  89. ID : 5
  90. Format : UTF-8
  91. Codec ID : S_TEXT/UTF8
  92. Codec ID/Info : UTF-8 Plain Text
  93. Title : Completa
  94. Language : Portuguese
  95. Default : No
  96. Forced : No
RAW Paste Data