Guest User

Untitled

a guest
Jan 5th, 2021
159
Never
Not a member of Pastebin yet? Sign Up, it unlocks many cool features!
  1. General
  2. Unique ID : 240047564143291621338758117601387226770 (0xB4977AABF0562A5074FCB42FBFD02692)
  3. Complete name : E:\VideoFirst\Run.2020.BDRip.1080p.seleZen.mkv
  4. Format : Matroska
  5. Format version : Version 4
  6. File size : 8.03 GiB
  7. Duration : 1 h 29 min
  8. Overall bit rate : 12.8 Mb/s
  9. Movie name : Run 2020 from seleZen
  10. Encoded date : UTC 2021-01-06 01:50:04
  11. Writing application : mkvmerge v40.0.0 ('Old Town Road + Pony') 64-bit
  12. Writing library : libebml v1.3.9 + libmatroska v1.5.2
  13.  
  14. Video
  15. ID : 1
  16. Format : AVC
  17. Format/Info : Advanced Video Codec
  18. Format profile : High@L4.1
  19. Format settings : CABAC / 5 Ref Frames
  20. Format settings, CABAC : Yes
  21. Format settings, Reference : 5 frames
  22. Codec ID : V_MPEG4/ISO/AVC
  23. Duration : 1 h 29 min
  24. Bit rate : 10.3 Mb/s
  25. Width : 1 920 pixels
  26. Height : 804 pixels
  27. Display aspect ratio : 2.40:1
  28. Frame rate mode : Constant
  29. Frame rate : 24.000 FPS
  30. Color space : YUV
  31. Chroma subsampling : 4:2:0
  32. Bit depth : 8 bits
  33. Scan type : Progressive
  34. Bits/(Pixel*Frame) : 0.278
  35. Stream size : 6.42 GiB (80%)
  36. Writing library : x264 core 161 -from seleZen
  37. Encoding settings : cabac=1 / ref=5 / deblock=1:-2:-2 / analyse=0x3:0x113 / me=umh / subme=10 / psy=1 / psy_rd=1.06:0.05 / mixed_ref=1 / me_range=32 / chroma_me=1 / trellis=2 / 8x8dct=1 / cqm=0 / deadzone=21,11 / fast_pskip=0 / chroma_qp_offset=-3 / threads=24 / lookahead_threads=4 / sliced_threads=0 / nr=0 / decimate=0 / interlaced=0 / bluray_compat=0 / constrained_intra=0 / bframes=9 / b_pyramid=2 / b_adapt=2 / b_bias=0 / direct=3 / weightb=1 / open_gop=0 / weightp=2 / keyint=240 / keyint_min=24 / scenecut=40 / intra_refresh=0 / rc_lookahead=40 / rc=2pass / mbtree=0 / bitrate=10300 / ratetol=1.0 / qcomp=0.60 / qpmin=0 / qpmax=51 / qpstep=4 / cplxblur=20.0 / qblur=0.5 / vbv_maxrate=50000 / vbv_bufsize=62000 / nal_hrd=none / filler=0 / ip_ratio=1.40 / pb_ratio=1.30 / aq=3:0.80
  38. Language : German
  39. Default : Yes
  40. Forced : No
  41.  
  42. Audio #1
  43. ID : 2
  44. Format : AC-3
  45. Format/Info : Audio Coding 3
  46. Commercial name : Dolby Digital
  47. Codec ID : A_AC3
  48. Duration : 1 h 29 min
  49. Bit rate mode : Constant
  50. Bit rate : 384 kb/s
  51. Channel(s) : 6 channels
  52. Channel layout : L R C LFE Ls Rs
  53. Sampling rate : 48.0 kHz
  54. Frame rate : 31.250 FPS (1536 SPF)
  55. Compression mode : Lossy
  56. Stream size : 246 MiB (3%)
  57. Title : Dub [iTunes]
  58. Language : Russian
  59. Service kind : Complete Main
  60. Default : Yes
  61. Forced : Yes
  62.  
  63. Audio #2
  64. ID : 3
  65. Format : AC-3
  66. Format/Info : Audio Coding 3
  67. Commercial name : Dolby Digital
  68. Codec ID : A_AC3
  69. Duration : 1 h 29 min
  70. Bit rate mode : Constant
  71. Bit rate : 384 kb/s
  72. Channel(s) : 6 channels
  73. Channel layout : L R C LFE Ls Rs
  74. Sampling rate : 48.0 kHz
  75. Frame rate : 31.250 FPS (1536 SPF)
  76. Compression mode : Lossy
  77. Stream size : 246 MiB (3%)
  78. Title : MVO [NewStudio]
  79. Language : Russian
  80. Service kind : Complete Main
  81. Default : No
  82. Forced : No
  83.  
  84. Audio #3
  85. ID : 4
  86. Format : AC-3
  87. Format/Info : Audio Coding 3
  88. Commercial name : Dolby Digital
  89. Codec ID : A_AC3
  90. Duration : 1 h 29 min
  91. Bit rate mode : Constant
  92. Bit rate : 384 kb/s
  93. Channel(s) : 6 channels
  94. Channel layout : L R C LFE Ls Rs
  95. Sampling rate : 48.0 kHz
  96. Frame rate : 31.250 FPS (1536 SPF)
  97. Compression mode : Lossy
  98. Stream size : 246 MiB (3%)
  99. Title : MVO [Jaskier]
  100. Language : Russian
  101. Service kind : Complete Main
  102. Default : No
  103. Forced : No
  104.  
  105. Audio #4
  106. ID : 5
  107. Format : AC-3
  108. Format/Info : Audio Coding 3
  109. Commercial name : Dolby Digital
  110. Codec ID : A_AC3
  111. Duration : 1 h 29 min
  112. Bit rate mode : Constant
  113. Bit rate : 384 kb/s
  114. Channel(s) : 6 channels
  115. Channel layout : L R C LFE Ls Rs
  116. Sampling rate : 48.0 kHz
  117. Frame rate : 31.250 FPS (1536 SPF)
  118. Compression mode : Lossy
  119. Stream size : 246 MiB (3%)
  120. Title : MVO [AMS]
  121. Language : Russian
  122. Service kind : Complete Main
  123. Default : No
  124. Forced : No
  125.  
  126. Audio #5
  127. ID : 6
  128. Format : AC-3
  129. Format/Info : Audio Coding 3
  130. Commercial name : Dolby Digital
  131. Codec ID : A_AC3
  132. Duration : 1 h 29 min
  133. Bit rate mode : Constant
  134. Bit rate : 384 kb/s
  135. Channel(s) : 6 channels
  136. Channel layout : L R C LFE Ls Rs
  137. Sampling rate : 48.0 kHz
  138. Frame rate : 31.250 FPS (1536 SPF)
  139. Compression mode : Lossy
  140. Stream size : 246 MiB (3%)
  141. Title : MVO [В одне рило]
  142. Language : Ukrainian
  143. Service kind : Complete Main
  144. Default : No
  145. Forced : No
  146.  
  147. Audio #6
  148. ID : 7
  149. Format : AC-3
  150. Format/Info : Audio Coding 3
  151. Commercial name : Dolby Digital
  152. Codec ID : A_AC3
  153. Duration : 1 h 29 min
  154. Bit rate mode : Constant
  155. Bit rate : 640 kb/s
  156. Channel(s) : 6 channels
  157. Channel layout : L R C LFE Ls Rs
  158. Sampling rate : 48.0 kHz
  159. Frame rate : 31.250 FPS (1536 SPF)
  160. Compression mode : Lossy
  161. Stream size : 410 MiB (5%)
  162. Title : Original
  163. Language : English
  164. Service kind : Complete Main
  165. Default : No
  166. Forced : No
  167.  
  168. Text #1
  169. ID : 8
  170. Format : UTF-8
  171. Codec ID : S_TEXT/UTF8
  172. Codec ID/Info : UTF-8 Plain Text
  173. Duration : 1 h 26 min
  174. Bit rate : 0 b/s
  175. Count of elements : 5
  176. Stream size : 109 Bytes (0%)
  177. Title : Forced
  178. Language : Russian
  179. Default : Yes
  180. Forced : Yes
  181.  
  182. Text #2
  183. ID : 9
  184. Format : UTF-8
  185. Codec ID : S_TEXT/UTF8
  186. Codec ID/Info : UTF-8 Plain Text
  187. Duration : 1 h 24 min
  188. Bit rate : 48 b/s
  189. Count of elements : 629
  190. Stream size : 30.2 KiB (0%)
  191. Title : Full
  192. Language : Russian
  193. Default : No
  194. Forced : No
  195.  
  196. Text #3
  197. ID : 10
  198. Format : UTF-8
  199. Codec ID : S_TEXT/UTF8
  200. Codec ID/Info : UTF-8 Plain Text
  201. Duration : 1 h 25 min
  202. Bit rate : 35 b/s
  203. Count of elements : 834
  204. Stream size : 22.0 KiB (0%)
  205. Title : SDH
  206. Language : English
  207. Default : No
  208. Forced : No
  209.  
  210. Menu
  211. 00:00:00.000 : de:Глава 01
  212. 00:10:45.250 : de:Глава 02
  213. 00:22:37.917 : de:Глава 03
  214. 00:35:55.125 : de:Глава 04
  215. 00:45:02.750 : de:Глава 05
  216. 00:56:08.292 : de:Глава 06
  217. 01:08:36.042 : de:Глава 07
  218. 01:18:10.667 : de:Глава 08
  219.  
  220.  
RAW Paste Data