SHARE
TWEET

Kidnapping Stella WEB-DL 720p

dirtyharrys Jul 13th, 2019 349 Never
Not a member of Pastebin yet? Sign Up, it unlocks many cool features!
  1. General
  2. Unique ID                   : 5704736323774307447891020709225582814 (0x44AB1375DE1238BA449CE2DFC6450DE)
  3. Complete name               : E:\V0VCS2lkbmFwcGluZ1N0ZWxsYQ.mkv
  4. Format                      : Matroska
  5. Format version              : Version 4
  6. File size                   : 1.68 GiB
  7. Duration                    : 1 h 29 min
  8. Overall bit rate mode       : Variable
  9. Overall bit rate            : 2 688 kb/s
  10. Movie name                  : Kidnapping Stella WEB-DL / Kidnapping Stella WEB-DL
  11. Encoded date                : UTC 2019-07-13 06:01:37
  12. Writing application         : mkvmerge v30.1.0 ('Forever And More') 32-bit
  13. Writing library             : libebml v1.3.6 + libmatroska v1.4.9
  14. Copyright                   : Movies HDs 2019
  15. ARTIST                      : HarshLearner
  16.  
  17. Video
  18. ID                          : 1
  19. Format                      : AVC
  20. Format/Info                 : Advanced Video Codec
  21. Format profile              : Main@L3.1
  22. Format settings             : CABAC / 3 Ref Frames
  23. Format settings, CABAC      : Yes
  24. Format settings, ReFrames   : 3 frames
  25. Codec ID                    : V_MPEG4/ISO/AVC
  26. Duration                    : 1 h 29 min
  27. Bit rate mode               : Variable
  28. Bit rate                    : 1 620 kb/s
  29. Maximum bit rate            : 2 430 kb/s
  30. Width                       : 1 280 pixels
  31. Height                      : 720 pixels
  32. Display aspect ratio        : 16:9
  33. Frame rate mode             : Constant
  34. Frame rate                  : 24.000 FPS
  35. Color space                 : YUV
  36. Chroma subsampling          : 4:2:0
  37. Bit depth                   : 8 bits
  38. Scan type                   : Progressive
  39. Bits/(Pixel*Frame)          : 0.073
  40. Stream size                 : 1 023 MiB (59%)
  41. Title                       : Kidnapping Stella
  42. Writing library             : x264 core 148 r2715 7e75228
  43. Default                     : Yes
  44. Forced                      : No
  45.  
  46. Audio #1
  47. ID                          : 2
  48. Format                      : AC-3
  49. Format/Info                 : Audio Coding 3
  50. Commercial name             : Dolby Digital
  51. Codec ID                    : A_AC3
  52. Duration                    : 1 h 29 min
  53. Bit rate mode               : Constant
  54. Bit rate                    : 448 kb/s
  55. Channel(s)                  : 6 channels
  56. Channel layout              : L R C LFE Ls Rs
  57. Sampling rate               : 48.0 kHz
  58. Frame rate                  : 31.250 FPS (1536 SPF)
  59. Bit depth                   : 16 bits
  60. Compression mode            : Lossy
  61. Stream size                 : 287 MiB (17%)
  62. Language                    : English
  63. Service kind                : Complete Main
  64. Default                     : No
  65. Forced                      : No
  66.  
  67. Audio #2
  68. ID                          : 3
  69. Format                      : E-AC-3
  70. Format/Info                 : Enhanced AC-3
  71. Commercial name             : Dolby Digital Plus
  72. Codec ID                    : A_EAC3
  73. Duration                    : 1 h 29 min
  74. Bit rate mode               : Constant
  75. Bit rate                    : 640 kb/s
  76. Channel(s)                  : 6 channels
  77. Channel layout              : L R C LFE Ls Rs
  78. Sampling rate               : 48.0 kHz
  79. Frame rate                  : 31.250 FPS (1536 SPF)
  80. Compression mode            : Lossy
  81. Stream size                 : 410 MiB (24%)
  82. Language                    : Spanish
  83. Service kind                : Complete Main
  84. Default                     : Yes
  85. Forced                      : Yes
  86.  
  87. Text #1
  88. ID                          : 4
  89. Format                      : UTF-8
  90. Codec ID                    : S_TEXT/UTF8
  91. Codec ID/Info               : UTF-8 Plain Text
  92. Duration                    : 1 h 12 min
  93. Bit rate                    : 26 b/s
  94. Count of elements           : 632
  95. Stream size                 : 14.1 KiB (0%)
  96. Language                    : English
  97. Default                     : No
  98. Forced                      : No
  99.  
  100. Text #2
  101. ID                          : 5
  102. Format                      : UTF-8
  103. Codec ID                    : S_TEXT/UTF8
  104. Codec ID/Info               : UTF-8 Plain Text
  105. Duration                    : 1 h 21 min
  106. Bit rate                    : 23 b/s
  107. Count of elements           : 636
  108. Stream size                 : 13.9 KiB (0%)
  109. Language                    : Spanish
  110. Default                     : Yes
  111. Forced                      : Yes
  112.  
  113. Text #3
  114. ID                          : 6
  115. Format                      : UTF-8
  116. Codec ID                    : S_TEXT/UTF8
  117. Codec ID/Info               : UTF-8 Plain Text
  118. Duration                    : 1 h 21 min
  119. Bit rate                    : 20 b/s
  120. Count of elements           : 599
  121. Stream size                 : 12.1 KiB (0%)
  122. Language                    : French
  123. Default                     : No
  124. Forced                      : No
  125.  
  126. Text #4
  127. ID                          : 7
  128. Format                      : UTF-8
  129. Codec ID                    : S_TEXT/UTF8
  130. Codec ID/Info               : UTF-8 Plain Text
  131. Duration                    : 1 h 21 min
  132. Bit rate                    : 21 b/s
  133. Count of elements           : 622
  134. Stream size                 : 12.9 KiB (0%)
  135. Title                       : Brazilian
  136. Language                    : Portuguese
  137. Default                     : No
  138. Forced                      : No
  139.  
  140. Text #5
  141. ID                          : 8
  142. Format                      : UTF-8
  143. Codec ID                    : S_TEXT/UTF8
  144. Codec ID/Info               : UTF-8 Plain Text
  145. Duration                    : 1 h 18 min
  146. Bit rate                    : 0 b/s
  147. Count of elements           : 5
  148. Stream size                 : 133 Bytes (0%)
  149. Language                    : Spanish
  150. Default                     : No
  151. Forced                      : No
RAW Paste Data
We use cookies for various purposes including analytics. By continuing to use Pastebin, you agree to our use of cookies as described in the Cookies Policy. OK, I Understand
 
Top