AlemaoPS

Untitled

Aug 19th, 2019
210
Never
Not a member of Pastebin yet? Sign Up, it unlocks many cool features!
  1. Video
  2. ID : 1
  3. Format : AVC
  4. Format/Info : Advanced Video Codec
  5. Format profile : High@L4
  6. Format settings : CABAC / 4 Ref Frames
  7. Format settings, CABAC : Yes
  8. Format settings, Reference frames : 4 frames
  9. Format settings, GOP : M=4, N=48
  10. Codec ID : V_MPEG4/ISO/AVC
  11. Duration : 1 h 1 min
  12. Bit rate mode : Constant
  13. Bit rate : 10 000 kb/s
  14. Width : 1 920 pixels
  15. Height : 1 080 pixels
  16. Display aspect ratio : 16:9
  17. Frame rate mode : Constant
  18. Frame rate : 23.976 (24000/1001) FPS
  19. Color space : YUV
  20. Chroma subsampling : 4:2:0
  21. Bit depth : 8 bits
  22. Scan type : Progressive
  23. Bits/(Pixel*Frame) : 0.201
  24. Stream size : 4.10 GiB (97%)
  25. Language : English
  26. Default : Yes
  27. Forced : No
  28. Color range : Limited
  29. Color primaries : BT.709
  30. Transfer characteristics : BT.709
  31. Matrix coefficients : BT.709
  32.  
  33. Audio
  34. ID : 2
  35. Format : E-AC-3
  36. Format/Info : Enhanced AC-3
  37. Commercial name : Dolby Digital Plus
  38. Codec ID : A_EAC3
  39. Duration : 1 h 1 min
  40. Bit rate mode : Constant
  41. Bit rate : 256 kb/s
  42. Channel(s) : 6 channels
  43. Channel layout : L R C LFE Ls Rs
  44. Sampling rate : 48.0 kHz
  45. Frame rate : 31.250 FPS (1536 SPF)
  46. Compression mode : Lossy
  47. Stream size : 113 MiB (3%)
  48. Language : English
  49. Service kind : Complete Main
  50. Default : Yes
  51. Forced : No
  52.  
  53. Text #1
  54. ID : 3
  55. Format : UTF-8
  56. Codec ID : S_TEXT/UTF8
  57. Codec ID/Info : UTF-8 Plain Text
  58. Duration : 1 h 1 min
  59. Bit rate : 112 b/s
  60. Count of elements : 1267
  61. Stream size : 50.6 KiB (0%)
  62. Language : English
  63. Default : No
  64. Forced : No
  65.  
  66. Text #2
  67. ID : 4
  68. Format : UTF-8
  69. Codec ID : S_TEXT/UTF8
  70. Codec ID/Info : UTF-8 Plain Text
  71. Duration : 1 h 1 min
  72. Bit rate : 115 b/s
  73. Count of elements : 1314
  74. Stream size : 51.7 KiB (0%)
  75. Title : SDH
  76. Language : English
  77. Default : No
  78. Forced : No
  79.  
  80. Menu
  81. 00:00:00.000 : en:End Credits
  82. 00:00:00.142 : en:Featurettes
  83. 00:00:05.142 : en:Remembering Stan Lee
  84. 00:07:20.142 : en:Setting The Tone: Casting Robert Downey Jr.
  85. 00:12:45.142 : en:A Man Out of Time: Creating Captain America
  86. 00:25:03.142 : en:Black Widow: Whatever It Takes
  87. 00:32:28.142 : en:The Russo Brothers: Journey to Endgame
  88. 00:37:29.142 : en:The Women of the MCU
  89. 00:42:22.142 : en:Bro Thor
  90. 00:46:04.142 : en:Steve and Peggy: One Last Dance
  91. 00:51:58.142 : en:Deleted Scenes
  92. 00:52:02.142 : en:Goji Berries
  93. 00:52:39.142 : en:Bombs on Board
  94. 00:53:08.142 : en:Suckiest Army in the Galaxy
  95. 00:53:34.142 : en:You Used to Frickin’ Live Here
  96. 00:54:43.142 : en:Tony and Howard
  97. 00:55:11.142 : en:Avengers Take a Knee
  98. 00:56:52.142 : en:Gag Reel
  99. 00:58:54.142 : en:Visionary Intro
  100. 01:01:27.142 : en:Writer and Director Audio Commentary
RAW Paste Data

Adblocker detected! Please consider disabling it...

We've detected AdBlock Plus or some other adblocking software preventing Pastebin.com from fully loading.

We don't have any obnoxious sound, or popup ads, we actively block these annoying types of ads!

Please add Pastebin.com to your ad blocker whitelist or disable your adblocking software.

×