Advertisement
Guest User

Untitled

a guest
May 25th, 2014
256
Never
Not a member of Pastebin yet? Sign Up, it unlocks many cool features!
  1. === Общие ===
  2. Полное имя : Roman.1983.DVDRip.XviD.pca1962.avi
  3. Формат : AVI
  4. Описание формата : Audio Video Interleave
  5. Профиль формата : OpenDML
  6. Размер файла : 2.07 Гб
  7. Длительность : 2ч 29мин
  8. Общий битрейт : 1 982 кбит/сек
  9. Название фильма : Romance.1983
  10. Director : pca1962
  11. Жанр / стиль : Melodrama
  12. Програмное обеспечение : VirtualDubMod 1.5.10.2 (build 2540/release)
  13. Кодирующая библиотека : VirtualDubMod build 2540/release
  14. Original source form/Name : Movie
  15.  
  16. === Видео ===
  17. ID (Идентификатор) : 0
  18. Формат : MPEG-4 Visual
  19. Профиль формата : Advanced Simple@L5
  20. Параметр 'BVOP' : 1
  21. Параметр 'QPel' : Нет
  22. Параметр 'GMC' : No warppoints
  23. Параметр 'Matrix' : Default (H.263)
  24. Идентификатор кодека : XVID
  25. Подпись кодека : XviD
  26. Длительность : 2ч 29мин
  27. Битрейт : 1 580 кбит/сек
  28. Ширина кадра : 640 пикселей
  29. Высота кадра : 336 пикселей
  30. Соотношение сторон : 1.905
  31. Частота кадров : 23.976 кадров/сек
  32. Цветовое пространство : YUV
  33. Субдискретизация насыщенности : 4:2:0
  34. Глубина (разрядность) : 8 bits
  35. Тип развертки : Прогрессивная
  36. Режим сжатия : С потерями
  37. Бит/(пиксель*кадр) : 0.306
  38. Размер потока : 1.65 Гб (80%)
  39. Кодирующая библиотека : XviD 73
  40.  
  41. === Аудио 1 ===
  42. ID (Идентификатор) : 1
  43. Формат : AC-3
  44. Описание формата : Audio Coding 3
  45. Mode extension : CM (complete main)
  46. Идентификатор кодека : 2000
  47. Длительность : 2ч 29мин
  48. Тип битрейта : Постоянный
  49. Битрейт : 192 кбит/сек
  50. Канал(ы) : 2 каналов
  51. Расположение каналов : Front: L R
  52. Частота дискретизации : 48.0 кГц
  53. Глубина (разрядность) : 16 bits
  54. Режим сжатия : С потерями
  55. Размер потока : 205 Мб (10%)
  56. Расположение потока : Split accross interleaves
  57. Период чередования : 42 мс (1.00 video frame)
  58. Предварительная загрузка : 500 мс
  59.  
  60. === Аудио 2 ===
  61. ID (Идентификатор) : 2
  62. Формат : AC-3
  63. Описание формата : Audio Coding 3
  64. Mode extension : CM (complete main)
  65. Идентификатор кодека : 2000
  66. Длительность : 2ч 29мин
  67. Тип битрейта : Постоянный
  68. Битрейт : 192 кбит/сек
  69. Канал(ы) : 3 каналов
  70. Расположение каналов : Front: L R, Side: C
  71. Частота дискретизации : 48.0 кГц
  72. Глубина (разрядность) : 16 bits
  73. Режим сжатия : С потерями
  74. Размер потока : 205 Мб (10%)
  75. Расположение потока : Split accross interleaves
  76. Период чередования : 42 мс (1.00 video frame)
  77. Предварительная загрузка : 500 мс
Advertisement
RAW Paste Data Copied
Advertisement