SHARE
TWEET

Untitled

seleZennet Feb 14th, 2020 85 Never
Not a member of Pastebin yet? Sign Up, it unlocks many cool features!
  1. General
  2. Unique ID                   : 46229365228796704291661832696139288888 (0x22C773AE6F55B23CF838809E9CCB1138)
  3. Complete name               : E:\Video111\Can.You.Keep.a.Secret.BDREMUX.1080p.seleZen.mkv
  4. Format                      : Matroska
  5. Format version              : Version 4
  6. File size                   : 25.9 GiB
  7. Duration                    : 1 h 34 min
  8. Overall bit rate mode       : Variable
  9. Overall bit rate            : 39.3 Mb/s
  10. Movie name                  : Can You Keep a Secret? 2019 from селезень
  11. Encoded date                : UTC 2020-02-14 15:47:51
  12. Writing application         : mkvmerge v40.0.0 ('Old Town Road + Pony') 64-bit
  13. Writing library             : libebml v1.3.9 + libmatroska v1.5.2
  14.  
  15. Video
  16. ID                          : 1
  17. Format                      : AVC
  18. Format/Info                 : Advanced Video Codec
  19. Format profile              : High@L4.1
  20. Format settings             : CABAC / 4 Ref Frames
  21. Format settings, CABAC      : Yes
  22. Format settings, Reference  : 4 frames
  23. Codec ID                    : V_MPEG4/ISO/AVC
  24. Duration                    : 1 h 34 min
  25. Bit rate mode               : Variable
  26. Bit rate                    : 35.5 Mb/s
  27. Maximum bit rate            : 37.0 Mb/s
  28. Width                       : 1 920 pixels
  29. Height                      : 1 080 pixels
  30. Display aspect ratio        : 16:9
  31. Frame rate mode             : Constant
  32. Frame rate                  : 24.000 FPS
  33. Color space                 : YUV
  34. Chroma subsampling          : 4:2:0
  35. Bit depth                   : 8 bits
  36. Scan type                   : Progressive
  37. Bits/(Pixel*Frame)          : 0.714
  38. Stream size                 : 23.4 GiB (90%)
  39. Language                    : German
  40. Default                     : Yes
  41. Forced                      : No
  42.  
  43. Audio #1
  44. ID                          : 2
  45. Format                      : AC-3
  46. Format/Info                 : Audio Coding 3
  47. Commercial name             : Dolby Digital
  48. Codec ID                    : A_AC3
  49. Duration                    : 1 h 34 min
  50. Bit rate mode               : Constant
  51. Bit rate                    : 384 kb/s
  52. Channel(s)                  : 6 channels
  53. Channel layout              : L R C LFE Ls Rs
  54. Sampling rate               : 48.0 kHz
  55. Frame rate                  : 31.250 FPS (1536 SPF)
  56. Compression mode            : Lossy
  57. Stream size                 : 259 MiB (1%)
  58. Title                       : iTunes
  59. Language                    : Russian
  60. Service kind                : Complete Main
  61. Default                     : Yes
  62. Forced                      : Yes
  63.  
  64. Audio #2
  65. ID                          : 3
  66. Format                      : DTS XLL
  67. Format/Info                 : Digital Theater Systems
  68. Commercial name             : DTS-HD Master Audio
  69. Codec ID                    : A_DTS
  70. Duration                    : 1 h 34 min
  71. Bit rate mode               : Variable
  72. Bit rate                    : 3 348 kb/s
  73. Channel(s)                  : 6 channels
  74. Channel layout              : C L R Ls Rs LFE
  75. Sampling rate               : 48.0 kHz
  76. Frame rate                  : 93.750 FPS (512 SPF)
  77. Bit depth                   : 24 bits
  78. Compression mode            : Lossless
  79. Stream size                 : 2.21 GiB (9%)
  80. Title                       : Original
  81. Language                    : English
  82. Default                     : No
  83. Forced                      : No
  84.  
  85. Text #1
  86. ID                          : 4
  87. Format                      : UTF-8
  88. Codec ID                    : S_TEXT/UTF8
  89. Codec ID/Info               : UTF-8 Plain Text
  90. Duration                    : 1 h 29 min
  91. Bit rate                    : 131 b/s
  92. Count of elements           : 1647
  93. Stream size                 : 86.6 KiB (0%)
  94. Title                       : Full
  95. Language                    : Russian
  96. Default                     : No
  97. Forced                      : No
  98.  
  99. Text #2
  100. ID                          : 5
  101. Format                      : UTF-8
  102. Codec ID                    : S_TEXT/UTF8
  103. Codec ID/Info               : UTF-8 Plain Text
  104. Duration                    : 1 h 32 min
  105. Bit rate                    : 77 b/s
  106. Count of elements           : 1936
  107. Stream size                 : 52.6 KiB (0%)
  108. Title                       : Full
  109. Language                    : English
  110. Default                     : No
  111. Forced                      : No
  112.  
  113. Text #3
  114. ID                          : 6
  115. Format                      : UTF-8
  116. Codec ID                    : S_TEXT/UTF8
  117. Codec ID/Info               : UTF-8 Plain Text
  118. Duration                    : 1 h 32 min
  119. Bit rate                    : 89 b/s
  120. Count of elements           : 2165
  121. Stream size                 : 60.7 KiB (0%)
  122. Title                       : SDH
  123. Language                    : English
  124. Default                     : No
  125. Forced                      : No
  126.  
  127. Menu
  128. 00:00:00.000                : de:Глава 01
  129. 00:06:06.250                : de:Глава 02
  130. 00:11:55.750                : de:Глава 03
  131. 00:20:55.833                : de:Глава 04
  132. 00:25:09.042                : de:Глава 05
  133. 00:31:29.708                : de:Глава 06
  134. 00:38:51.500                : de:Глава 07
  135. 00:46:20.667                : de:Глава 08
  136. 00:54:59.833                : de:Глава 09
  137. 01:01:09.458                : de:Глава 10
  138. 01:05:15.042                : de:Глава 11
  139. 01:12:42.583                : de:Глава 12
  140. 01:17:24.333                : de:Глава 13
  141. 01:21:49.917                : de:Глава 14
  142. 01:25:10.000                : de:Глава 15
  143. 01:30:27.208                : de:Глава 16
RAW Paste Data
We use cookies for various purposes including analytics. By continuing to use Pastebin, you agree to our use of cookies as described in the Cookies Policy. OK, I Understand
Top