SHARE
TWEET

I Am Mother WEB-DL HEVC

dirtyharrys Jun 9th, 2019 59 Never
Not a member of Pastebin yet? Sign Up, it unlocks many cool features!
  1. General
  2. Unique ID                   : 42954090005624177838203246976106152187 (0x2050A825324E176538104E989A72C0FB)
  3. Complete name               : E:\I.Am.Mother.2019.1080p.WEB-DL.HEVC.x265\I.Am.Mother.2019.1080p.WEB-DL.HEVC.x265.mkv
  4. Format                      : Matroska
  5. Format version              : Version 4
  6. File size                   : 2.93 GiB
  7. Duration                    : 1 h 53 min
  8. Overall bit rate            : 3 693 kb/s
  9. Movie name                  : I Am Mother WEB-DL / I Am Mother WEB-DL
  10. Encoded date                : UTC 2019-06-09 08:17:14
  11. Writing application         : mkvmerge v30.1.0 ('Forever And More') 32-bit
  12. Writing library             : libebml v1.3.6 + libmatroska v1.4.9
  13. Copyright                   : Movies HDs 2019
  14. ARTIST                      : HarshLearner
  15.  
  16. Video
  17. ID                          : 1
  18. Format                      : HEVC
  19. Format/Info                 : High Efficiency Video Coding
  20. Format profile              : Main 10@L4@Main
  21. Codec ID                    : V_MPEGH/ISO/HEVC
  22. Duration                    : 1 h 53 min
  23. Bit rate                    : 2 411 kb/s
  24. Width                       : 1 920 pixels
  25. Height                      : 800 pixels
  26. Display aspect ratio        : 2.40:1
  27. Frame rate mode             : Constant
  28. Frame rate                  : 24.000 FPS
  29. Color space                 : YUV
  30. Chroma subsampling          : 4:2:0
  31. Bit depth                   : 10 bits
  32. Bits/(Pixel*Frame)          : 0.065
  33. Stream size                 : 1.91 GiB (65%)
  34. Title                       : I Am Mother
  35. Writing library             : x265 3.0_Au+16-0018ca1ca42f:[Windows][MSVC 1916][64 bit] 10bit
  36. Encoding settings           : cpuid=1111039 / frame-threads=3 / numa-pools=12 / wpp / no-pmode / no-pme / no-psnr / no-ssim / log-level=2 / input-csp=1 / input-res=1920x800 / interlace=0 / total-frames=163496 / level-idc=0 / high-tier=1 / uhd-bd=0 / ref=4 / no-allow-non-conformance / no-repeat-headers / annexb / no-aud / no-hrd / info / hash=0 / no-temporal-layers / open-gop / min-keyint=24 / keyint=250 / gop-lookahead=0 / bframes=8 / b-adapt=2 / b-pyramid / bframe-bias=0 / rc-lookahead=80 / lookahead-slices=4 / scenecut=40 / radl=0 / no-splice / no-intra-refresh / ctu=64 / min-cu-size=8 / rect / no-amp / max-tu-size=32 / tu-inter-depth=1 / tu-intra-depth=1 / limit-tu=0 / rdoq-level=2 / dynamic-rd=0.00 / no-ssim-rd / signhide / no-tskip / nr-intra=0 / nr-inter=0 / no-constrained-intra / no-strong-intra-smoothing / max-merge=3 / limit-refs=3 / limit-modes / me=3 / subme=3 / merange=57 / temporal-mvp / weightp / no-weightb / no-analyze-src-pics / deblock=-2:-2 / no-sao / no-sao-non-deblock / rd=4 / no-early-skip / rskip / no-fast-intra / no-tskip-fast / no-cu-lossless / no-b-intra / no-splitrd-skip / rdpenalty=0 / psy-rd=2.00 / psy-rdoq=1.75 / no-rd-refine / no-lossless / cbqpoffs=0 / crqpoffs=0 / rc=crf / crf=20.5 / qcomp=0.60 / qpstep=4 / stats-write=0 / stats-read=0 / ipratio=1.40 / pbratio=1.30 / aq-mode=3 / aq-strength=1.00 / cutree / zone-count=0 / no-strict-cbr / qg-size=32 / no-rc-grain / qpmax=69 / qpmin=0 / no-const-vbv / sar=0 / overscan=0 / videoformat=5 / range=0 / colorprim=2 / transfer=2 / colormatrix=2 / chromaloc=0 / display-window=0 / max-cll=0,0 / min-luma=0 / max-luma=1023 / log2-max-poc-lsb=8 / vui-timing-info / vui-hrd-info / slices=1 / no-opt-qp-pps / no-opt-ref-list-length-pps / no-multi-pass-opt-rps / scenecut-bias=0.05 / no-opt-cu-delta-qp / no-aq-motion / no-hdr / no-hdr-opt / no-dhdr10-opt / no-idr-recovery-sei / analysis-reuse-level=5 / scale-factor=0 / refine-intra=0 / refine-inter=0 / refine-mv=0 / refine-ctu-distortion=0 / no-limit-sao / ctu-info=0 / no-lowpass-dct / refine-analysis-type=0 / copy-pic=1 / max-ausize-factor=1.0 / no-dynamic-refine / no-single-sei / no-hevc-aq / no-svt / qp-adaptation-range=1.00
  37. Default                     : Yes
  38. Forced                      : No
  39.  
  40. Audio #1
  41. ID                          : 2
  42. Format                      : E-AC-3
  43. Format/Info                 : Enhanced AC-3
  44. Commercial name             : Dolby Digital Plus
  45. Codec ID                    : A_EAC3
  46. Duration                    : 1 h 53 min
  47. Bit rate mode               : Constant
  48. Bit rate                    : 640 kb/s
  49. Channel(s)                  : 6 channels
  50. Channel layout              : L R C LFE Ls Rs
  51. Sampling rate               : 48.0 kHz
  52. Frame rate                  : 31.250 FPS (1536 SPF)
  53. Compression mode            : Lossy
  54. Stream size                 : 520 MiB (17%)
  55. Language                    : English
  56. Service kind                : Complete Main
  57. Default                     : No
  58. Forced                      : No
  59.  
  60. Audio #2
  61. ID                          : 3
  62. Format                      : E-AC-3
  63. Format/Info                 : Enhanced AC-3
  64. Commercial name             : Dolby Digital Plus
  65. Codec ID                    : A_EAC3
  66. Duration                    : 1 h 53 min
  67. Bit rate mode               : Constant
  68. Bit rate                    : 640 kb/s
  69. Channel(s)                  : 6 channels
  70. Channel layout              : L R C LFE Ls Rs
  71. Sampling rate               : 48.0 kHz
  72. Frame rate                  : 31.250 FPS (1536 SPF)
  73. Compression mode            : Lossy
  74. Stream size                 : 520 MiB (17%)
  75. Language                    : Spanish
  76. Service kind                : Complete Main
  77. Default                     : Yes
  78. Forced                      : Yes
  79.  
  80. Text #1
  81. ID                          : 4
  82. Format                      : UTF-8
  83. Codec ID                    : S_TEXT/UTF8
  84. Codec ID/Info               : UTF-8 Plain Text
  85. Duration                    : 1 h 42 min
  86. Bit rate                    : 36 b/s
  87. Count of elements           : 912
  88. Stream size                 : 27.7 KiB (0%)
  89. Language                    : English
  90. Default                     : No
  91. Forced                      : No
  92.  
  93. Text #2
  94. ID                          : 5
  95. Format                      : UTF-8
  96. Codec ID                    : S_TEXT/UTF8
  97. Codec ID/Info               : UTF-8 Plain Text
  98. Duration                    : 1 h 45 min
  99. Bit rate                    : 42 b/s
  100. Count of elements           : 1156
  101. Stream size                 : 32.7 KiB (0%)
  102. Title                       : English SDH
  103. Language                    : English
  104. Default                     : No
  105. Forced                      : No
  106.  
  107. Text #3
  108. ID                          : 6
  109. Format                      : UTF-8
  110. Codec ID                    : S_TEXT/UTF8
  111. Codec ID/Info               : UTF-8 Plain Text
  112. Duration                    : 1 h 44 min
  113. Bit rate                    : 33 b/s
  114. Count of elements           : 885
  115. Stream size                 : 25.6 KiB (0%)
  116. Language                    : Spanish
  117. Default                     : Yes
  118. Forced                      : Yes
  119.  
  120. Text #4
  121. ID                          : 7
  122. Format                      : UTF-8
  123. Codec ID                    : S_TEXT/UTF8
  124. Codec ID/Info               : UTF-8 Plain Text
  125. Duration                    : 1 h 45 min
  126. Bit rate                    : 31 b/s
  127. Count of elements           : 893
  128. Stream size                 : 23.9 KiB (0%)
  129. Title                       : European
  130. Language                    : Spanish
  131. Default                     : No
  132. Forced                      : No
  133.  
  134. Text #5
  135. ID                          : 8
  136. Format                      : UTF-8
  137. Codec ID                    : S_TEXT/UTF8
  138. Codec ID/Info               : UTF-8 Plain Text
  139. Duration                    : 1 h 45 min
  140. Bit rate                    : 32 b/s
  141. Count of elements           : 864
  142. Stream size                 : 25.1 KiB (0%)
  143. Language                    : French
  144. Default                     : No
  145. Forced                      : No
  146.  
  147. Text #6
  148. ID                          : 9
  149. Format                      : UTF-8
  150. Codec ID                    : S_TEXT/UTF8
  151. Codec ID/Info               : UTF-8 Plain Text
  152. Duration                    : 1 h 45 min
  153. Bit rate                    : 31 b/s
  154. Count of elements           : 887
  155. Stream size                 : 24.2 KiB (0%)
  156. Title                       : Brazilian
  157. Language                    : Portuguese
  158. Default                     : No
  159. Forced                      : No
RAW Paste Data
We use cookies for various purposes including analytics. By continuing to use Pastebin, you agree to our use of cookies as described in the Cookies Policy. OK, I Understand
 
Top