SHARE
TWEET

Untitled

a guest Dec 21st, 2018 59 Never
Not a member of Pastebin yet? Sign Up, it unlocks many cool features!
  1. [13:15:47] macgui: Handbrake Version: 1.1.2  (2018090500)
  2. [13:15:47] hb_init: starting libhb thread
  3. [13:15:47] hb_init: starting libhb thread
  4. [13:16:41] macgui: trying to open a folder or file
  5. [13:16:41] macgui: ScanCore scanning titles with a duration of 10 seconds or more
  6. [13:16:41] CPU: Intel(R) Core(TM) i7-6920HQ CPU @ 2.90GHz
  7. [13:16:41]  - Intel microarchitecture Skylake
  8. [13:16:41]  - logical processor count: 8
  9. [13:16:41] hb_scan: path=/Users/mmarotta/Desktop/EFT 120218.mp4, title_index=0
  10. udfread ERROR: ECMA 167 Volume Recognition failed
  11. disc.c:323: failed opening UDF image /Users/mmarotta/Desktop/EFT 120218.mp4
  12. disc.c:424: error opening file BDMV/index.bdmv
  13. disc.c:424: error opening file BDMV/BACKUP/index.bdmv
  14. [13:16:41] bd: not a bd - trying as a stream/file instead
  15. libdvdnav: Using dvdnav version 6.0.0
  16. libdvdread: Encrypted DVD support unavailable.
  17. libdvdread:DVDOpenFileUDF:UDFFindFile /VIDEO_TS/VIDEO_TS.IFO failed
  18. libdvdread:DVDOpenFileUDF:UDFFindFile /VIDEO_TS/VIDEO_TS.BUP failed
  19. libdvdread: Can't open file VIDEO_TS.IFO.
  20. libdvdnav: vm: failed to read VIDEO_TS.IFO
  21. [13:16:41] dvd: not a dvd - trying as a stream/file instead
  22. Input #0, mov,mp4,m4a,3gp,3g2,mj2, from '/Users/mmarotta/Desktop/EFT 120218.mp4':
  23.   Metadata:
  24.     major_brand     : mp42
  25.     minor_version   : 0
  26.     compatible_brands: isommp42
  27.     creation_time   : 2018-12-02 21:03:30
  28.   Duration: 01:33:49.80, start: 0.000000, bitrate: 1619 kb/s
  29.     Chapter #0:0: start 0.000000, end 5629.800000
  30.     Metadata:
  31.       title           : Recording Started
  32.     Stream #0:0(und): Audio: aac (LC) [mp4a / 0x6134706D]
  33.       32000 Hz, mono, fltp, 53 kb/s (default)
  34.     Metadata:
  35.       creation_time   : 2018-12-02 21:03:30
  36.       handler_name    : AAC audio
  37.     Stream #0:1(und): Video: h264 (High) [avc1 / 0x31637661]
  38.       yuv420p, 1280x720, 1563 kb/s
  39.       25 fps, 30k tbn (default)
  40.     Metadata:
  41.       creation_time   : 2018-12-02 21:03:30
  42.       handler_name    : H.264/AVC video
  43.       encoder         : AVC Coding
  44.     Stream #0:2(und): Subtitle: mov_text
  45.     Metadata:
  46.       creation_time   : 2018-12-02 21:03:30
  47.       handler_name    : Text
  48. [13:16:41] scan: decoding previews for title 1
  49. [13:16:41] scan: audio 0x0: aac, rate=32000Hz, bitrate=53374 Unknown (AAC) (1.0 ch)
  50. [13:16:42] scan: 10 previews, 1280x720, 25.000 fps, autocrop = 0/0/0/0, aspect 16:9, PAR 1:1
  51. [13:16:42] libhb: scan thread found 1 valid title(s)
  52. [13:16:42] macgui: ScanCore scan done
  53. [13:16:55] macgui: QueueCore scanning specifically for title: 1
  54. [13:16:55] CPU: Intel(R) Core(TM) i7-6920HQ CPU @ 2.90GHz
  55. [13:16:55]  - Intel microarchitecture Skylake
  56. [13:16:55]  - logical processor count: 8
  57. [13:16:55] hb_scan: path=/Users/mmarotta/Desktop/EFT 120218.mp4, title_index=1
  58. udfread ERROR: ECMA 167 Volume Recognition failed
  59. disc.c:323: failed opening UDF image /Users/mmarotta/Desktop/EFT 120218.mp4
  60. disc.c:424: error opening file BDMV/index.bdmv
  61. disc.c:424: error opening file BDMV/BACKUP/index.bdmv
  62. [13:16:55] bd: not a bd - trying as a stream/file instead
  63. libdvdnav: Using dvdnav version 6.0.0
  64. libdvdread: Encrypted DVD support unavailable.
  65. libdvdread:DVDOpenFileUDF:UDFFindFile /VIDEO_TS/VIDEO_TS.IFO failed
  66. libdvdread:DVDOpenFileUDF:UDFFindFile /VIDEO_TS/VIDEO_TS.BUP failed
  67. libdvdread: Can't open file VIDEO_TS.IFO.
  68. libdvdnav: vm: failed to read VIDEO_TS.IFO
  69. [13:16:55] dvd: not a dvd - trying as a stream/file instead
  70. Input #0, mov,mp4,m4a,3gp,3g2,mj2, from '/Users/mmarotta/Desktop/EFT 120218.mp4':
  71.   Metadata:
  72.     major_brand     : mp42
  73.     minor_version   : 0
  74.     compatible_brands: isommp42
  75.     creation_time   : 2018-12-02 21:03:30
  76.   Duration: 01:33:49.80, start: 0.000000, bitrate: 1619 kb/s
  77.     Chapter #0:0: start 0.000000, end 5629.800000
  78.     Metadata:
  79.       title           : Recording Started
  80.     Stream #0:0(und): Audio: aac (LC) [mp4a / 0x6134706D]
  81.       32000 Hz, mono, fltp, 53 kb/s (default)
  82.     Metadata:
  83.       creation_time   : 2018-12-02 21:03:30
  84.       handler_name    : AAC audio
  85.     Stream #0:1(und): Video: h264 (High) [avc1 / 0x31637661]
  86.       yuv420p, 1280x720, 1563 kb/s
  87.       25 fps, 30k tbn (default)
  88.     Metadata:
  89.       creation_time   : 2018-12-02 21:03:30
  90.       handler_name    : H.264/AVC video
  91.       encoder         : AVC Coding
  92.     Stream #0:2(und): Subtitle: mov_text
  93.     Metadata:
  94.       creation_time   : 2018-12-02 21:03:30
  95.       handler_name    : Text
  96. [13:16:55] scan: decoding previews for title 1
  97. [13:16:55] scan: audio 0x0: aac, rate=32000Hz, bitrate=53374 Unknown (AAC) (1.0 ch)
  98. [13:16:56] scan: 10 previews, 1280x720, 25.000 fps, autocrop = 0/0/0/0, aspect 16:9, PAR 1:1
  99. [13:16:56] libhb: scan thread found 1 valid title(s)
  100. [13:16:56] macgui: QueueCore scan done
  101. [13:16:56] macgui: QueueCore started encoding EFT 120218.mp4
  102. [13:16:56] macgui: QueueCore with preset 640px 96k 23rf 265 ultrafast
  103. [13:16:56] 1 job(s) to process
  104. [13:16:56] starting job
  105. [13:16:56] work: only 1 chapter, disabling chapter markers
  106. [13:16:56] job configuration:
  107. [13:16:56]  * source
  108. [13:16:56]    + /Users/mmarotta/Desktop/EFT 120218.mp4
  109. [13:16:56]    + title 1, chapter(s) 1 to 1
  110. [13:16:56]    + container: mov,mp4,m4a,3gp,3g2,mj2
  111. [13:16:56]    + data rate: 1619 kbps
  112. [13:16:56]  * destination
  113. [13:16:56]    + /Users/mmarotta/Desktop/untitled folder/EFT 120218.mp4
  114. [13:16:56]    + container: MPEG-4 (libavformat)
  115. [13:16:56]  * video track
  116. [13:16:56]    + decoder: h264
  117. [13:16:56]      + bitrate 1563 kbps
  118. [13:16:56]    + filters
  119. [13:16:56]      + Framerate Shaper (mode=0:rate=27000000/1080000)
  120. [13:16:56]        + frame rate: same as source (around 25.000 fps)
  121. [13:16:56]      + Denoise (hqdn3d) (y-spatial=2:cb-spatial=1:cr-spatial=1:y-temporal=2:cb-temporal=3:cr-temporal=3)
  122. [13:16:56]      + Crop and Scale (width=640:height=360:crop-top=0:crop-bottom=0:crop-left=0:crop-right=0)
  123. [13:16:56]        + source: 1280 * 720, crop (0/0/0/0): 1280 * 720, scale: 640 * 360
  124. [13:16:56]    + Output geometry
  125. [13:16:56]      + storage dimensions: 640 x 360
  126. [13:16:56]      + pixel aspect ratio: 1 : 1
  127. [13:16:56]      + display dimensions: 640 x 360
  128. [13:16:56]    + encoder: H.265 (libx265)
  129. [13:16:56]      + preset:  ultrafast
  130. [13:16:56]      + profile: auto
  131. [13:16:56]      + quality: 23.00 (RF)
  132. [13:16:56]  * audio track 1
  133. [13:16:56]    + decoder: Unknown (AAC) (1.0 ch) (track 1, id 0x0)
  134. [13:16:56]      + bitrate: 53 kbps, samplerate: 32000 Hz
  135. [13:16:56]    + mixdown: Mono
  136. [13:16:56]    + encoder: AAC (Apple AudioToolbox)
  137. [13:16:56]      + bitrate: 96 kbps, samplerate: 32000 Hz
  138. [13:16:56] sync: expecting 140745 video frames
  139. x265 [info]: HEVC encoder version 2.6
  140. x265 [info]: build info [Mac OS X][clang 9.1.0][64 bit] 8bit+10bit+12bit
  141. x265 [info]: using cpu capabilities: MMX2 SSE2Fast LZCNT SSSE3 SSE4.2 AVX FMA3 BMI2 AVX2
  142. x265 [info]: Main profile, Level-2.1 (Main tier)
  143. x265 [info]: Thread pool created using 8 threads
  144. x265 [info]: Slices                              : 1
  145. x265 [info]: frame threads / pool features       : 3 / wpp(12 rows)
  146. x265 [warning]: Source height < 720p; disabling lookahead-slices
  147. x265 [info]: Coding QT: max CU size, min CU size : 32 / 16
  148. x265 [info]: Residual QT: max TU size, max depth : 32 / 1 inter / 1 intra
  149. x265 [info]: ME / range / subpel / merge         : dia / 57 / 0 / 2
  150. x265 [info]: Keyframe min / max / scenecut / bias: 25 / 250 / 0 / 5.00
  151. x265 [info]: Lookahead / bframes / badapt        : 5 / 3 / 0
  152. x265 [info]: b-pyramid / weightp / weightb       : 1 / 0 / 0
  153. x265 [info]: References / ref-limit  cu / depth  : 1 / off / off
  154. x265 [info]: AQ: mode / str / qg-size / cu-tree  : 1 / 0.0 / 32 / 1
  155. x265 [info]: Rate Control / qCompress            : CRF-23.0 / 0.60
  156. x265 [info]: tools: rd=2 psy-rd=2.00 early-skip rskip tmvp fast-intra
  157. x265 [info]: tools: strong-intra-smoothing deblock
  158. [13:16:56] sync: first pts video is 0
  159. [13:16:56] sync: "Recording Started" (1) at frame 1 time 0
  160. [13:16:56] sync: first pts audio 0x0 is 0
  161. [13:17:12] macgui: QueueCore encode canceled
  162. [13:17:12] work: average encoding speed for job is 119.287468 fps
  163. [13:17:12] vfr: lost time: 0 (0 frames)
  164. [13:17:12] vfr: gained time: 0 (0 frames) (0 not accounted for)
  165. [13:17:12] aac-decoder done: 2528 frames, 0 decoder errors
  166. [13:17:12] h264-decoder done: 1990 frames, 0 decoder errors
  167. [13:17:12] sync: got 1953 frames, 140745 expected
  168. [13:17:12] sync: framerate min 25.000 fps, max 25.000 fps, avg 25.000 fps
  169. x265 [info]: frame I:      8, Avg QP:24.57  kb/s: 3089.73
  170. x265 [info]: frame P:    477, Avg QP:27.14  kb/s: 504.85  
  171. x265 [info]: frame B:   1433, Avg QP:30.67  kb/s: 24.71  
  172. x265 [info]: consecutive B-frames: 0.4% 1.4% 0.2% 97.9%
  173.  
  174. encoded 1918 frames in 16.65s (115.18 fps), 156.90 kb/s, Avg QP:29.76
  175. [13:17:12] mux: track 0, 1918 frames, 1512345 bytes, 155.03 kbps, fifo 2048
  176. [13:17:12] mux: track 1, 2440 frames, 978359 bytes, 100.29 kbps, fifo 4096
  177. [13:17:12] libhb: work result = 1
  178. [13:17:12] macgui: QueueCore work canceled
  179. [13:17:12] macgui: Queue manually stopped
RAW Paste Data
We use cookies for various purposes including analytics. By continuing to use Pastebin, you agree to our use of cookies as described in the Cookies Policy. OK, I Understand
 
Top